<?xml version="1.0" standalone="no"?>
<!DOCTYPE svg PUBLIC "-//W3C//DTD SVG 1.1//EN" "http://www.w3.org/Graphics/SVG/1.1/DTD/svg11.dtd" >
<svg xmlns="http://www.w3.org/2000/svg" xmlns:xlink="http://www.w3.org/1999/xlink" version="1.1">
<metadata>
Created by FontForge 20190801 at Wed Jul 12 21:27:19 2017
 By Unknown
Copyright (c) 1997 International Typeface Corporation. All rights reserved.
</metadata>
<defs>
<font id="BodoniSvtyTwoITCTT-BookIta" horiz-adv-x="0" >
  <font-face 
    font-family="Bodoni 72"
    font-weight="400"
    font-style="italic"
    font-stretch="normal"
    units-per-em="1000"
    panose-1="0 0 4 0 0 0 0 0 0 0"
    ascent="800"
    descent="-200"
    x-height="428"
    cap-height="694"
    bbox="-502 -404 1721 1149.44"
    underline-thickness="45"
    underline-position="-136"
    slope="-20"
    unicode-range="U+0020-FB02"
  />
<missing-glyph horiz-adv-x="500" 
d="M63 0v752h375v-752h-375zM125 63h250v627h-250v-627z" />
    <glyph glyph-name=".notdef" horiz-adv-x="500" 
d="M63 0v752h375v-752h-375zM125 63h250v627h-250v-627z" />
    <glyph glyph-name="space" unicode=" " horiz-adv-x="186" 
 />
    <glyph glyph-name="exclam" unicode="!" horiz-adv-x="263" 
d="M347 663q0 -22 -36 -102l-123 -272q-28 -61 -61 -132q-7 -18 -14 -18q-8 0 -8 10q0 7 4 21q36 122 89 313l29 122q14 58 28 77t43 19q49 0 49 -38zM128 56q0 -26 -18 -45t-43 -19q-20 0 -33.5 13t-13.5 32q0 26 19 44.5t45 18.5q19 0 31.5 -12.5t12.5 -31.5z" />
    <glyph glyph-name="quotedbl" unicode="&#x22;" horiz-adv-x="343" 
d="M441 682q0 -14 -13 -44l-70 -163q-12 -27 -18 -27q-4 0 -4 6l2 22l30 174q5 32 13 42q12 16 31 16q29 0 29 -26zM295 682q0 -13 -13 -44l-70 -163q-12 -27 -18 -27q-4 0 -4 6q0 3 3 22l29 174q5 31 13 42q12 16 31 16q29 0 29 -26z" />
    <glyph glyph-name="numbersign" unicode="#" horiz-adv-x="519" 
d="M571 485q0 -7 -1 -12l-1 -16q-1 -14 -6.5 -17.5t-26.5 -3.5h-92l-51 -138h101q20 0 20 -6q0 -1 -1 -5t-13 -45q-3 -8 -22 -8h-113l-66 -193q-8 -23 -14 -23q-21 0 -21 10q0 4 3 13l67 192h-139l-74 -200q-6 -15 -10 -15q-1 0 -5 1l-9 1q-10 1 -10 7q0 5 4 13l72 194h-86
q-23 0 -23 8q0 3 5 15l7 17l3 8q3 12 7 14.5t20 2.5h91q8 26 52 134h-99q-17 -3 -17 8q0 2 2.5 9t6.5 20q1 1 3 9q5 18 23 18h107l63 169q5 14 10 14q21 0 21 -5q0 -4 -3 -12l-62 -167h141l51 148q6 12 7 21q4 19 11 19h7q10 0 10 -8q0 -9 -19 -67q-5 -13 -13 -38l-24 -75
h97q9 0 9 -11zM411 433h-140q-12 -30 -29 -76q-7 -20 -22 -59h141z" />
    <glyph glyph-name="dollar" unicode="$" horiz-adv-x="517" 
d="M562 561q0 -24 -14 -40t-35 -16q-42 0 -42 43q0 32 31 42q16 5 16 22q0 49 -67 69l-100 -278q68 -63 91 -103.5t23 -96.5q0 -90 -68 -148q-74 -63 -168 -63q-15 0 -27 1l-44 -119q-7 -18 -18 -18q-12 0 -12 12q0 7 3 13l43 114q-137 29 -137 151q0 37 17 59t45 22
q45 0 45 -45q0 -42 -41 -49q-23 -4 -23 -21q0 -79 99 -99l113 307q-51 42 -66 59q-47 52 -47 127q0 83 62.5 140t154.5 57q4 0 34 -2l30 85q5 15 14 15q17 0 17 -12q0 -3 -3 -9l-31 -84q47 -12 72 -41q33 -38 33 -94zM426 686q-13 2 -28 2q-61 0 -101.5 -40.5t-40.5 -100.5
q0 -35 13 -57t60 -66zM381 157q0 76 -66 146l-106 -295q79 1 120 34q52 42 52 115z" />
    <glyph glyph-name="percent" unicode="%" horiz-adv-x="755" 
d="M766 697q0 -4 -67 -79l-533 -599q-8 -9 -14 -18q-10 -11 -16 -11t-16.5 6.5t-10.5 10.5q0 2 14 18l580 650q-73 -22 -141 -22q-82 0 -167 30q45 -39 45 -116q0 -95 -55 -163.5t-132 -68.5q-51 0 -83 40t-32 104q0 54 24.5 106t68 88t99.5 36q16 0 40 -6q123 -31 197 -31
q88 0 156 26q23 9 30 9q13 0 13 -10zM724 222q0 -97 -57 -172q-50 -66 -130 -66q-52 0 -84 39t-32 101q0 94 56 163.5t132 69.5q50 0 82.5 -38t32.5 -97zM372 624q0 71 -42 71q-45 0 -84 -84q-41 -89 -41 -185q0 -77 45 -77q51 0 90 101q32 83 32 174zM655 276q0 68 -45 68
t-85 -94q-38 -90 -38 -174q0 -79 46 -79t84 87t38 192z" />
    <glyph glyph-name="ampersand" unicode="&#x26;" horiz-adv-x="733" 
d="M693 294q0 -41 -41 -41q-32 0 -33 33q-1 29 -19 29q-25 0 -72 -61q-40 -52 -64 -99q29 -73 57.5 -103.5t66.5 -30.5q49 0 79 47q9 14 15 14q5 0 5 -5q0 -12 -33 -44q-47 -46 -109 -46q-50 0 -80 19t-60 71q-71 -91 -178 -91q-88 0 -138 44.5t-50 122.5q0 112 117 179
q38 22 130 62q-24 94 -24 132q0 78 53.5 129t135.5 51q62 0 103 -33t41 -83q0 -62 -61 -103q-29 -19 -142 -72q-5 -3 -17 -8q11 -43 40 -122q11 -29 38 -108q58 96 96.5 131.5t82.5 35.5q27 0 44 -14t17 -36zM522 595q0 95 -79 95q-46 0 -73 -34.5t-27 -93.5q0 -58 26 -136
q4 3 18 9q75 36 102 68q33 40 33 92zM393 97q-52 109 -103 283l-17 -9q-71 -38 -97 -66q-51 -56 -51 -136q0 -68 36 -111t92 -43q93 0 140 82z" />
    <glyph glyph-name="quotesingle" unicode="'" horiz-adv-x="197" 
d="M295 682q0 -13 -13 -44l-70 -163q-12 -27 -18 -27q-4 0 -4 6q0 3 3 22l29 174q5 31 13 42q12 16 31 16q29 0 29 -26z" />
    <glyph glyph-name="parenleft" unicode="(" horiz-adv-x="327" 
d="M473 713q0 -8 -26 -26q-133 -93 -222 -263q-40 -76 -56 -143t-16 -158q0 -140 50 -266q2 -5 2 -9q0 -9 -8 -9q-10 0 -44 70q-70 144 -70 262q0 159 81 286q71 112 237 226q54 37 64 37q8 0 8 -7z" />
    <glyph glyph-name="parenright" unicode=")" horiz-adv-x="341" 
d="M326 385q0 -129 -49.5 -228.5t-164.5 -199.5q-42 -37 -100 -77.5t-69 -40.5q-8 0 -8 8q0 4 56 50q146 120 213 282q53 127 53 250q0 67 -14 145t-35 125q-3 7 -3 13q0 9 9 9q5 0 37 -60q75 -140 75 -276z" />
    <glyph glyph-name="asterisk" unicode="*" horiz-adv-x="381" 
d="M481 560q0 -5 -13 -10q-5 -2 -24.5 -13.5t-21.5 -11.5q-7 0 -43 28q-6 5 -47 18l5 -14q10 -29 27 -48t17 -29q0 -9 -9 -20l-6 -9l-3 -8v-5q-2 -14 -11 -14q-7 0 -13 10q-3 7 -11 13l-11 7q-14 9 -14 19q0 7 3 15q13 35 13 82q-19 -12 -31 -24q-8 -13 -25 -37
q-11 -19 -28 -19q-8 0 -12 3t-9 5l-28 -3q-6 0 -6 10q0 6 12 20q6 9 6 14l3 14q2 15 23 15q7 0 12 -1h15q1 0 46 8l17 3l-14 10q-24 17 -53 24q-25 6 -30 11t-4 27l-1 11l-5 11q-2 6 -2 8q0 10 9 10q2 0 16 -4t32 -4q14 0 17 -2.5t5 -12.5q3 -21 15 -41.5t23 -40.5
q9 39 9 60v11q-1 8 -1 19q0 12 4.5 16.5t26.5 12.5q9 1 12 8q8 6 11 6q10 0 10 -9v-11q0 -8 5 -26q4 -8 4 -14q0 -12 -39 -34q-9 -8 -14 -17q-1 -1 -6 -7t-13 -18q32 0 51 6q23 10 37 13q9 3 14 3t11 -8q11 -15 22 -22q15 -10 15 -14z" />
    <glyph glyph-name="plus" unicode="+" horiz-adv-x="524" 
d="M518 317h-189v-185h-36v185h-189v36h189v185h36v-185h189v-36z" />
    <glyph glyph-name="comma" unicode="," horiz-adv-x="237" 
d="M126 21q0 -77 -76 -115q-60 -30 -108 -30q-11 0 -11 6q0 4 22 8q63 12 99 41.5t36 69.5q0 14 -7 14q-4 0 -9 -11q-2 -6 -19 -6t-29.5 12.5t-12.5 30.5q0 48 58 48q57 0 57 -68z" />
    <glyph glyph-name="hyphen" unicode="-" horiz-adv-x="263" 
d="M252 266l-10 -55h-202l8 55h204z" />
    <glyph glyph-name="hyphen" unicode="&#x2010;" horiz-adv-x="263" 
d="M252 266l-10 -55h-202l8 55h204z" />
    <glyph glyph-name="period" unicode="." horiz-adv-x="223" 
d="M111 49q0 -25 -15.5 -40.5t-40.5 -15.5q-49 0 -49 47q0 25 16.5 41.5t41.5 16.5q47 0 47 -49z" />
    <glyph glyph-name="slash" unicode="/" horiz-adv-x="408" 
d="M530 682q0 -6 -9 -18l-488 -660q-15 -20 -20 -20q-8 0 -17 7t-9 13q0 5 10 19l487 659q13 17 17 17q8 0 18.5 -6t10.5 -11z" />
    <glyph glyph-name="zero" unicode="0" horiz-adv-x="524" 
d="M572 519q0 -122 -59 -250q-57 -122 -144 -201q-91 -83 -178 -83q-63 0 -101 54.5t-38 144.5q0 160 135 353q117 167 249 167q64 0 100 -49t36 -136zM499 601q0 88 -68 88q-99 0 -203 -224q-47 -103 -79 -222q-19 -72 -19 -138q0 -102 73 -102q58 0 103.5 59t107.5 214
q85 213 85 325z" />
    <glyph glyph-name="one" unicode="1" horiz-adv-x="524" 
d="M496 702q0 -6 -15 -38q-6 -14 -12 -29l-202 -549q-18 -49 -18 -53q0 -20 33 -19l71 1q14 0 14 -9q0 -7 -13 -7h-10q-7 1 -39 1h-176q-45 0 -72 -1q-8 -1 -17 -1q-12 0 -12 7q0 9 25 9h10q9 -1 26 -1h16q33 0 48 18q8 10 23 50l153 413q45 121 45 138q0 19 -22 19
q-10 0 -53 -8q-11 -2 -18 -2q-11 0 -11 7t51 16q100 18 163 43l6 2q6 0 6 -7z" />
    <glyph glyph-name="two" unicode="2" horiz-adv-x="524" 
d="M555 565q0 -85 -79 -166q-65 -67 -279 -213q-74 -51 -150 -106q49 -4 88 -4q153 0 185 3.5t52 20.5q32 28 53 75q7 15 14 15q8 0 8 -9t-34 -81q-7 -12 -19 -42q-13 -34 -27 -58q-94 -2 -109 -2q-239 0 -299 4l9 25q9 26 23 40t54 41q111 74 238 179q107 89 146 175
q26 58 26 109q0 50 -28 79t-77 29q-74 0 -120 -69q-20 -30 -20 -47q0 -7 5 -7l29 1q10 0 19 -11t9 -22q0 -20 -15.5 -35t-35.5 -15q-19 0 -33.5 15t-14.5 35q0 60 58 121t157 61q82 0 121 -35q46 -41 46 -106z" />
    <glyph glyph-name="three" unicode="3" horiz-adv-x="524" 
d="M568 572q0 -83 -76 -135q-59 -40 -122 -54q-14 -3 -14 -7q0 -3 17 -9q94 -33 94 -132t-88 -177q-78 -69 -192 -69q-78 0 -121 34.5t-43 98.5q0 40 21 66.5t52 26.5q17 0 29.5 -11t12.5 -26q0 -19 -13 -32.5t-31 -13.5q-8 0 -13 1h-9q-24 0 -24 -25q0 -40 34.5 -66.5
t84.5 -26.5q93 0 154 81q22 30 37.5 77.5t15.5 86.5q0 42 -23.5 70.5t-57.5 27.5l-51 -1q-4 -1 -9 -1q-17 0 -17 19q0 13 29 13q66 1 99 14q60 24 97.5 75t37.5 109q0 97 -93 97q-45 0 -85.5 -27t-40.5 -57q0 -6 2.5 -7t19.5 -4q28 -4 28 -39q0 -19 -12 -31.5t-31 -12.5
q-20 0 -33 15.5t-13 37.5q0 56 51 101q56 49 145 49q71 0 111 -36t40 -100z" />
    <glyph glyph-name="four" unicode="4" horiz-adv-x="524" 
d="M577 707q0 -4 -12 -15l-474 -441h100q88 0 129 -1l97 251q8 21 15 21q5 0 37.5 -5t32.5 -13q0 -5 -4 -16l-90 -239q23 0 62 4q10 1 16 1q17 0 17 -14q0 -19 -25 -19h-80l-30 -86l-46 -135q-7 -15 -23 -14q-48 3 -55.5 4t-7.5 8q0 3 5 17l73 209l-274 1q-4 2 -4 5t8 10
l440 407q16 15 38 36q7 10 18.5 22.5t21.5 12.5q15 0 15 -11z" />
    <glyph glyph-name="five" unicode="5" horiz-adv-x="524" 
d="M580 717q0 -6 -54 -85q-11 -16 -18 -19t-35 -3q-4 0 -18 1l-170 12l-76 -196q-5 -11 -14 -35q56 50 126 50q69 0 108.5 -44.5t39.5 -122.5q0 -115 -85 -199.5t-201 -84.5q-59 0 -99.5 33.5t-40.5 82.5q0 21 16 36t38 15q41 0 41 -41q0 -33 -33 -42q-20 -6 -20 -13
q0 -17 23 -34q26 -20 72 -20q92 0 151 104q51 91 51 181q0 123 -87 123q-32 0 -67.5 -21t-54.5 -50q-11 -18 -18 -18q-12 0 -12 9q0 6 6 19q4 10 13 29l20 47l79 199q5 11 13 34q11 34 25 34q7 0 11 -1l10 -1l144 -10q29 -2 42 -2q38 0 54 28q7 12 13 12q7 0 7 -7z" />
    <glyph glyph-name="six" unicode="6" horiz-adv-x="524" 
d="M570 641q0 -44 -44 -44q-36 0 -36 32q0 10 13 29q5 7 5 14q0 19 -42 19q-69 0 -134 -96q-33 -48 -88 -170q55 29 102 29q68 0 107.5 -42.5t39.5 -116.5q0 -132 -98 -234q-69 -72 -155 -72q-70 0 -107 49q-47 62 -47 152q0 82 48 192.5t121 196.5q108 128 223 128
q42 0 67 -18t25 -48zM402 330q0 102 -76 102q-73 0 -116 -98q-48 -109 -48 -229q0 -98 80 -98q70 0 114 104q46 109 46 219z" />
    <glyph glyph-name="seven" unicode="7" horiz-adv-x="524" 
d="M610 697q0 -13 -89 -130q-24 -33 -133 -183q-35 -47 -102 -143l-66 -99q-36 -54 -36 -71t14 -17q5 0 16 13q7 8 20 8q28 0 28 -37q0 -22 -15.5 -36t-40.5 -14t-40 15t-15 38q0 31 30.5 84t119.5 177l215 297h-57l-214 2q-13 -3 -22 -27q-13 -37 -20 -37t-7 7q0 6 15 53
q4 15 11 43l11 42q10 37 22 37q7 0 7 -6q0 -10 -4 -22q-2 -4 -2 -5q0 -6 8.5 -7.5t52.5 -1.5l209 -2q10 -1 23 -1q20 0 41 19q11 10 15 10q5 0 5 -6z" />
    <glyph glyph-name="eight" unicode="8" horiz-adv-x="524" 
d="M559 575q0 -69 -63 -121q-7 -6 -110 -66l-12 -7q46 -70 55 -89q25 -50 25 -100q0 -86 -67 -144.5t-166 -58.5q-74 0 -117 35t-43 94q0 82 71 147q20 18 43 32q69 39 87 50l18 11q-3 4 -8 12l-24 38q-42 66 -42 120q0 72 60.5 126t141.5 54q67 0 105 -32q46 -39 46 -101z
M496 585q0 106 -94 106q-49 0 -84 -38t-35 -92q0 -73 76 -163q64 37 100.5 87.5t36.5 99.5zM366 168q0 41 -15.5 77t-58.5 97q-163 -97 -163 -221q0 -53 26 -83.5t72 -30.5q58 0 98.5 47t40.5 114z" />
    <glyph glyph-name="nine" unicode="9" horiz-adv-x="524" 
d="M540 515q0 -96 -44 -197q-66 -152 -159 -241t-185 -89q-43 0 -69 18t-26 48q0 20 12.5 33t32.5 13q37 0 37 -31q0 -10 -9.5 -24t-9.5 -21q0 -18 42 -18q71 0 124 80q60 90 100 196q-43 -29 -97 -29q-70 0 -108.5 41t-38.5 115q0 119 74 208t172 89q73 0 112.5 -50
t39.5 -141zM468 587q0 101 -81 101q-66 0 -110 -96q-48 -104 -48 -191q0 -58 22.5 -91.5t62.5 -33.5q68 0 111 109t43 202z" />
    <glyph glyph-name="colon" unicode=":" horiz-adv-x="237" 
d="M236 367q0 -23 -16.5 -39t-41.5 -16q-46 0 -46 46q0 25 16.5 41.5t40.5 16.5q20 0 33.5 -14t13.5 -35zM111 50q0 -26 -16.5 -42t-42.5 -16q-46 0 -46 46q0 25 17 42t43 17q45 0 45 -47z" />
    <glyph glyph-name="semicolon" unicode=";" horiz-adv-x="237" 
d="M213 365q0 -23 -16.5 -39t-41.5 -16q-46 0 -46 46q0 25 16.5 41.5t40.5 16.5q20 0 33.5 -14t13.5 -35zM126 21q0 -77 -76 -115q-60 -30 -108 -30q-11 0 -11 6q0 4 22 8q63 12 99 41.5t36 69.5q0 14 -7 14q-4 0 -9 -11q-2 -6 -19 -6t-29.5 12.5t-12.5 30.5q0 48 58 48
q57 0 57 -68z" />
    <glyph glyph-name="less" unicode="&#x3c;" horiz-adv-x="517" 
d="M484 66l-428 287v6l428 275v-46l-365 -233l365 -243v-46z" />
    <glyph glyph-name="equal" unicode="=" horiz-adv-x="524" 
d="M518 366h-414v36h414v-36zM518 268h-414v36h414v-36z" />
    <glyph glyph-name="greater" unicode="&#x3e;" horiz-adv-x="517" 
d="M521 353l-428 -287v46l365 243l-365 233v46l428 -275v-6z" />
    <glyph glyph-name="question" unicode="?" horiz-adv-x="392" 
d="M488 563q0 -71 -57 -113q-28 -21 -45 -30q-24 -12 -106 -47q-107 -45 -138 -177q-9 -36 -16 -36t-7 10q0 56 36 130q33 68 127 137q80 59 102 87t22 72q0 94 -85 94q-44 0 -68 -24t-24 -42q0 -8 18 -17q15 -7 15 -25q0 -17 -12.5 -29t-31.5 -12q-18 0 -31 13t-13 32
q0 48 50 85q46 34 109 34q71 0 113 -38.5t42 -103.5zM150 47q0 -24 -15 -39.5t-39 -15.5q-48 0 -48 44q0 25 16 41.5t41 16.5q45 0 45 -47z" />
    <glyph glyph-name="at" unicode="@" horiz-adv-x="961" 
d="M935 398q0 -151 -117 -246q-82 -66 -184 -66q-77 0 -77 55q0 8 6 36q-62 -92 -148 -92q-49 0 -81 35t-32 89q0 101 102 209t196 108q72 0 81 -73q8 18 25 54q4 13 13 13q5 0 15.5 -1.5t15.5 -1.5q10 0 22 4.5t16 4.5t4 -5q0 -7 -24 -58q-17 -40 -53 -121l-53 -118
q-29 -64 -29 -90q0 -25 34 -25q76 0 150 73q34 34 55 91t21 116q0 132 -88 214t-236 82q-178 0 -294 -125.5t-116 -319.5q0 -167 92.5 -270t242.5 -103q164 0 297 109q68 56 102 121q6 11 10 11q14 -1 14 -9q0 -14 -35 -57q-163 -198 -404 -198q-172 0 -286 110.5
t-114 277.5q0 211 175 356q137 114 309 114q90 0 170 -28.5t127 -78.5q76 -80 76 -197zM672 443q0 25 -23 46q-17 16 -45 16q-60 0 -122 -95q-88 -134 -88 -234q0 -67 53 -67q76 0 143 145l53 114q29 62 29 75z" />
    <glyph glyph-name="A" unicode="A" horiz-adv-x="627" 
d="M593 9q0 -10 -34 -11q37 1 -39 2l-76 1l-132 -1q-7 -1 -16 -1q-17 0 -17 12q0 9 11 9t22 -1h11q27 0 48 9q14 6 21 56l20 135q1 3 1 8q0 7 -36 7h-89q-47 -1 -51 -1h-16q-6 -6 -26 -30l-93 -128q-19 -26 -19 -36q0 -21 55 -21q6 0 18 1.5t18 1.5q14 0 14 -10
q0 -11 -27 -11l-55 1l-91 -2q-65 -1 -82 1.5t-17 11.5q0 8 10 8q7 0 20 -2t20 -2q34 0 57 13q16 9 65 74l289 380q26 34 79 101l88 114q10 13 17 13q10 0 10 -14q0 -23 -7 -55q-13 -60 -28 -181l-44 -356q-6 -49 -6 -54q0 -29 36 -31l59 -3q12 -1 12 -8zM460 536q0 9 -4 9
q-6 0 -11 -12.5t-9 -15.5q-6 -7 -32 -42l-107 -144q-18 -24 -47 -62q-5 -4 -6 -7q0 -8 14 -7l20 1l50 -1q74 -1 90 7l31 205q3 20 9 55q2 10 2 14z" />
    <glyph glyph-name="B" unicode="B" horiz-adv-x="588" 
d="M637 561q0 -105 -116 -167q-59 -31 -111 -40q61 -15 90 -40q39 -34 39 -91q0 -56 -32.5 -107t-87.5 -81q-67 -37 -248 -37h-24q-21 1 -40 1h-91q-59 0 -68 -1h-6q-11 0 -11 8q0 11 13 10l44 -4q38 3 45.5 5t12.5 13q2 6 7.5 18t31.5 77l176 438q32 80 32 94q0 17 -74 17
q-15 0 -15 8q0 7 16 8l50 2h181q94 0 135 -29q51 -36 51 -102zM541 584q0 89 -105 89q-19 0 -37 -1q-9 -18 -21 -49l-97 -253q15 -2 33 -2q123 0 179 70q48 60 48 146zM437 235q0 113 -116 113q-26 0 -52 -3l-110 -281q-12 -31 -12 -36q0 -14 16 -14q106 0 164 33
q110 63 110 188z" />
    <glyph glyph-name="C" unicode="C" horiz-adv-x="573" 
d="M688 650q0 -13 -15 -42q-46 -89 -55 -125q-4 -16 -12 -16t-8 10q0 3 7 25q6 19 6 49q0 62 -32 98t-87 36q-130 0 -219 -141q-98 -155 -98 -329q0 -184 134 -184q48 0 90 24q76 44 110 104q13 23 22 23q6 0 6 -8q0 -23 -56 -83q-98 -104 -225 -104q-89 0 -139.5 56.5
t-50.5 156.5q0 188 134.5 346t294.5 158q44 0 74 -15q21 -11 62 -46q10 -9 20 -9q12 0 23 19q4 4 8 4q6 0 6 -7z" />
    <glyph glyph-name="D" unicode="D" horiz-adv-x="715" 
d="M745 468q0 -142 -85.5 -259.5t-226.5 -170.5q-61 -23 -104 -29.5t-148 -7.5q-32 0 -152 -1l-56 -1q-9 -1 -21 -1q-14 0 -14 9q0 8 13 10q9 1 31 1q46 0 58 9q11 13 16.5 27t18.5 44l202 500q21 52 21 61q0 12 -31 15l-54 5q-16 0 -16 8t21 8q15 0 60 -2q23 -1 62 -1h68
q22 0 50 1h34q90 0 147 -29q106 -56 106 -196zM646 502q0 97 -52 139q-42 34 -118 34q-40 0 -60 -4q-10 -2 -23 -30q-19 -40 -27 -61l-189 -478q-25 -63 -25 -67q0 -15 54 -15q185 0 302 130q64 70 101 165t37 187z" />
    <glyph glyph-name="E" unicode="E" horiz-adv-x="573" 
d="M675 683q0 -1 -2 -5q-5 -8 -11 -28q-17 -59 -27.5 -100.5t-18.5 -41.5q-6 0 -6 8l1 7q13 32 13 77q0 49 -31.5 61.5t-106.5 13.5l-67 1q-17 0 -25 -20l-34 -90l-75 -192q36 -3 47 -3q51 0 89 26t53 71q5 15 12 15q9 0 9 -8q0 -2 -4 -11q-57 -122 -99 -249q-3 -14 -10 -14
t-7 7q0 4 2 11q15 53 15 77q0 32 -22 45t-78 13q-16 0 -24 -20l-108 -266q-12 -30 -12 -35q0 -9 18 -10l52 -2q26 -1 54 -1q145 0 199 63q28 32 52 105q7 20 17 20q7 0 7 -7q0 -4 -10 -30q-38 -99 -56 -155q-4 -11 -9 -14t-23 -3h-339q-124 0 -144.5 1t-20.5 8q0 6 9 7t58 1
q19 0 26 7t21 41l202 488q9 19 26.5 62t17.5 53q0 8 -9.5 9.5t-65.5 2.5q-12 0 -12 6q0 10 19 10h29q27 -1 66 -1l298 -2q18 0 22 1h6q17 0 17 -10z" />
    <glyph glyph-name="F" unicode="F" horiz-adv-x="507" 
d="M670 689q0 -19 -33 -120q-5 -10 -10 -32q-7 -27 -14 -27q-6 0 -6 8q0 12 3 23q8 29 8 55q0 56 -34 69q-14 5 -26 6q-15 1 -77 2q-15 0 -26 1h-16h-26q-9 0 -13 -4t-13 -26l-115 -279q10 -2 21 -2q67 0 85 5q41 12 75 84q20 42 27 42t7 -5q0 -10 -33 -95q-12 -31 -31 -86
q-3 -7 -13 -44q-14 -54 -24 -54q-7 0 -7 9q0 11 6 29q5 22 5 38q0 59 -61 59q-42 0 -63 -3l-104 -267q-19 -49 -19 -53q0 -8 17 -8q8 0 78 3q11 0 11 -9q0 -10 -15 -10l-80 2l-126 -1l-53 1q-26 -2 -29 -2q-11 0 -11 8q0 10 14 10q18 0 29 -1q5 -1 10 -1q44 0 55 11
q5 5 26 57l209 528q21 53 21 58q0 9 -12 9l-60 -1q-15 0 -15 11q0 9 12 9q9 0 16 -1l63 -2l217 -1q13 0 49 1q31 2 49 1l30 -1q6 0 13 1h4q5 0 5 -5z" />
    <glyph glyph-name="G" unicode="G" horiz-adv-x="675" 
d="M745 667q0 -3 -12 -26q-6 -12 -18 -41l-17 -42q-22 -55 -26 -63t-10 -8q-8 0 -8 7q0 4 5 24q11 44 11 70q0 41 -33 69.5t-82 28.5q-67 0 -140 -48.5t-129 -131.5q-59 -87 -95 -198q-25 -78 -25 -149q0 -75 37 -116t104 -41q103 0 144 86q28 58 28 95q0 19 -32 19h-13
q-10 0 -24 -1q-17 0 -17 9q0 10 12 10q9 0 15 -1l111 -2l129 2q17 0 17 -10t-32 -10h-33q-23 0 -30.5 -6t-14.5 -31l-16 -55q-8 -26 -63 -63q-86 -57 -199 -57q-110 0 -167 48q-64 53 -64 146q0 94 49 195t134 184q151 146 311 146q68 0 111 -37q26 -22 39 -22q18 0 31 23
q2 2 7 2t5 -5z" />
    <glyph glyph-name="H" unicode="H" horiz-adv-x="695" 
d="M863 685q0 -9 -13 -9q-10 0 -17 1h-13q-43 0 -55.5 -12t-37.5 -78l-191 -496q-13 -34 -20 -56q0 -13 16.5 -16.5t73.5 -4.5q11 -2 11 -7q0 -9 -18 -9h-16l-145 2l-96 -1q-6 -1 -13 -1q-13 0 -13 9q0 11 14 10l24 -1h10l27 1q14 1 19 4.5t11 17.5q2 6 11 30l90 234
q4 10 11 29q-2 10 -30 10h-164q-12 0 -27 1h-25h-6q-14 0 -19 -19q-1 -3 -11 -29l-84 -214q-16 -41 -16 -48q0 -12 38 -19l56 3q5 0 5 -9t-13 -9h-20q-17 1 -26 1l-132 2q-17 0 -48.5 -2t-46.5 -2q-21 0 -21 10q0 11 11 11q7 0 14 -1h7q42 0 55 5q10 3 16 12q9 15 32 71
l202 504q17 42 17 49q0 15 -30 18q-5 1 -42 1q-22 0 -22 9q0 8 11 8l70 -1q70 -1 115 -1h47q10 0 20 1q11 0 10 0q18 0 18 -9q0 -12 -16 -12q-3 0 -29 1q-6 1 -24 1q-20 0 -26.5 -9t-27.5 -62l-87 -223q-2 -3 -3 -6q0 -9 41 -10l134 -2q8 1 15 1l62 -1q7 0 11.5 7t18.5 40
l79 193q18 44 18 57t-30 15h-40q-23 0 -23 11q0 7 23 7l190 -1h23q17 1 31 1h12q17 0 17 -8z" />
    <glyph glyph-name="I" unicode="I" horiz-adv-x="327" 
d="M488 686q0 -9 -12 -9q-6 0 -10 1h-16q-43 0 -53 -16q-15 -23 -44 -97l-201 -515q-2 -6 -5 -14q0 -18 40 -23q13 0 31 -1q13 -1 13 -7q0 -7 -14 -7q-72 1 -207 1q-47 0 -54.5 1t-7.5 6q0 7 27 7q37 1 49 5q19 7 28 22q9 22 21 52l195 490q29 73 29 80q0 17 -31 17h-40
q-11 0 -11 8q0 7 11 7h9q6 -1 48 -1l149 1q6 -1 10 -1l37 1q9 0 9 -8z" />
    <glyph glyph-name="J" unicode="J" horiz-adv-x="386" 
d="M561 686q0 -10 -23 -10t-34 -1q-26 -3 -33 -10q-14 -5 -65 -136l-91 -235q-51 -133 -86 -197t-80 -110q-69 -71 -138 -71q-31 0 -52.5 19.5t-21.5 48.5q0 46 45 46q39 0 39 -37q0 -16 -5 -22.5t-22 -13.5q-7 -3 -7 -9q0 -16 30 -16q49 0 82 64q15 29 57 134l175 439
l21 54q2 9 8 26q4 6 4 10q0 19 -33 18l-50 -1q-9 0 -9 7q0 10 13 10l33 -1q5 0 18.5 1t33.5 1l88 -1q8 0 30 1q40 2 59 2q14 0 14 -10z" />
    <glyph glyph-name="K" unicode="K" horiz-adv-x="621" 
d="M770 684q0 -9 -30 -9q-33 0 -66 -22q-24 -16 -128 -101l-76 -62q-24 -20 -49 -36q-43 -28 -43 -38l3 -9l5 -15l100 -312q14 -45 23.5 -54t40.5 -9h8q9 0 20 1h10q11 0 11 -8q0 -12 -37 -12q2 0 -35.5 1t-69.5 1h-29l-78 -1q-25 0 -25 9q0 10 14 10q12 0 21 -1h15
q24 0 24 17q-3 12 -13 48l-77 255q-12 41 -21 41q-5 0 -16 -29l-94 -239q-26 -66 -26 -75q0 -19 29 -19h9q8 0 18 1h11q28 0 28 -8q0 -9 -19 -9l-70 1l-197 -3q-15 0 -15 9q0 10 14 10q6 0 18 -1t18 -1q32 0 42 9q5 4 11 16q10 19 37 87l182 457q18 45 28 75q0 20 -43.5 19
t-43.5 9q0 8 40 8l100 -1l94 1q38 0 38 -8t-30 -9q-25 -1 -37 -4q-21 -6 -27 -22l-21 -57l-64 -171q-4 -10 -8 -22q0 -6 5 -6q3 0 8 5q8 9 22 15l70 49l33 26l87 71q69 56 85 73q11 12 11 25q0 17 -31 17q-15 0 -23 -1h-16q-12 0 -12 7q0 12 19 12h14q4 0 60 -1t111 -1
q33 0 33 -9z" />
    <glyph glyph-name="L" unicode="L" horiz-adv-x="575" 
d="M550 197q0 -14 -56 -154l-12 -30q-4 -10 -9.5 -11.5t-36.5 -1.5h-61q-42 0 -83.5 1t-37.5 1h-32q-28 -1 -51 -1h-80q-20 0 -40 1q-20 0 -19 0q-13 0 -39 -2t-39 -2q-14 0 -14 8q0 9 25 9q2 -2 51 2q18 1 23.5 5.5t11.5 21.5q3 6 17 40l218 530q17 41 17 52q0 15 -50 15
q3 0 -29 -2q-9 -1 -9 8q0 10 48 10q-1 0 43 -1q24 -1 47 -3q49 -2 104 1l19 1q5 1 12 1q10 0 10 -10q0 -9 -12 -9q-1 0 -21 2h-12q-35 0 -43.5 -5.5t-37.5 -78.5l-208 -523q-8 -19 -12 -31q-2 -4 -3 -7q0 -16 41 -16q140 0 192 14q76 20 125 112q18 34 25 53q3 9 9 9
q9 0 9 -9z" />
    <glyph glyph-name="M" unicode="M" horiz-adv-x="776" 
d="M936 686q0 -14 -12 -14q-4 1 -13 3q-4 1 -10 1t-10 -1h-21q-4 1 -11 1q-12 0 -19 -14q-19 -39 -37 -86l-187 -487q-2 -7 -8 -22q0 -2 -2.5 -9.5t-8.5 -22.5q-4 -4 -4 -7q0 -12 26 -12h14l24 -1l20 1q3 -1 3 -5q0 -13 -15 -12l-28 2l-214 -2q-10 0 -10 6q0 11 27.5 11
t44.5 5q8 3 17 23l50 126l196 495q-1 -1 -99 -146l-331 -487q-19 -26 -25 -26q-8 0 -8 16l1 11l1 31l27 508q2 38 2 49q0 23 -4 23q-2 -2 -5 -10q-6 -20 -17 -49l-200 -545q-2 -6 -2 -9q0 -12 10 -15t49 -1l18 1q7 0 7 -6q0 -11 -13 -11q-11 0 -18 1l-64 1q-71 1 -105 -1
q-6 -1 -14 -1q-10 0 -10 7q0 11 15 11q5 0 11 -1t32 -1q34 0 42.5 9.5t30.5 67.5l202 540q3 10 8 23q3 4 5 8q0 4 -11.5 8.5t-22.5 4.5q-16 -1 -57 -2h-4q-7 0 -7 11q0 10 11 10q7 0 13 -1q13 -2 101 -2q77 0 82 1h5q6 0 6 -9q0 -15 -2 -55l-23 -454q4 7 23 33l24 33
l302 451h75l115 1q12 0 12 -7z" />
    <glyph glyph-name="N" unicode="N" horiz-adv-x="686" 
d="M856 684q0 -12 -29 -11l-45 1q-22 0 -30 -15l-8 -23l-15 -38l-200 -532q-5 -10 -15 -33l-6 -16q-9 -23 -14 -23q-9 0 -15 26l-158 637l-197 -547q-26 -72 -26 -81q0 -12 33 -12h12q8 0 16 1h8q34 0 34 -10t-15 -10q-7 0 -28 1q-42 2 -84 2q-5 0 -32 -1t-49 -1h-23
q-17 0 -17 8t24 11h13q5 0 36 2t42 19q4 9 12 28l19 50l196 542l4 8q0 8 -28 8q-48 0 -58 -1h-16q-20 0 -20 11q0 12 18 12q5 0 23 -1q36 -2 110 -2q57 0 77 2l138 -535l161 438q21 57 21 67q0 9 -14 9q3 0 -32 -1l-35 -1q-21 -1 -21 9q0 12 21 12l121 -2h19q15 1 28 1h31
q13 0 13 -9z" />
    <glyph glyph-name="O" unicode="O" horiz-adv-x="710" 
d="M739 469q0 -104 -52 -204.5t-142 -172.5q-133 -105 -266 -105q-100 0 -156 55.5t-56 155.5q0 101 52 207.5t140 183.5q132 116 270 116q101 0 157 -73q53 -69 53 -163zM644 533q0 57 -22 101q-28 57 -101 57q-125 0 -237 -181q-55 -89 -87.5 -189t-32.5 -181
q0 -139 126 -139q75 0 147 63q96 83 154 235q53 138 53 234z" />
    <glyph glyph-name="P" unicode="P" horiz-adv-x="567" 
d="M660 545q0 -95 -88 -159.5t-217 -64.5q-34 0 -94 8l-96 -249q-5 -13 -15 -41l-6 -15q-1 -1 -2 -3q0 -7 13 -7l77 1q10 -2 10 -8q0 -10 -16 -9l-26 1l-196 2q-25 0 -36 -1.5t-7 -1.5q-15 0 -15 9q0 10 13 10q6 0 11 -1l52 -1q17 0 26 16.5t27 63.5l206 529q4 11 20 52
q-6 1 -13 1q-13 0 -32 -2t-24 -2q-24 0 -24 10t20 10h8q8 -1 17 -1h12q17 0 36 1l19 1q141 0 206 -12q134 -25 134 -137zM560 559q0 61 -31.5 88t-102.5 27q-10 0 -28 -3l-128 -322q51 -10 77 -10q84 0 148.5 67t64.5 153z" />
    <glyph glyph-name="Q" unicode="Q" horiz-adv-x="711" 
d="M739 463q0 -164 -127 -307.5t-297 -170.5q-14 -37 -14 -69q0 -50 31.5 -81t81.5 -31q35 0 55 8q13 5 16 5q8 0 8 -7q0 -10 -35.5 -19.5t-72.5 -9.5q-86 0 -140 41t-54 106q0 27 9 67q-134 56 -134 196q0 188 141 346q149 167 321 167q97 0 154 -65.5t57 -175.5zM644 532
q0 157 -126 157q-131 0 -249 -205q-107 -185 -107 -357q0 -129 122 -129q67 0 132 48t115.5 133.5t81.5 183.5t31 169z" />
    <glyph glyph-name="R" unicode="R" horiz-adv-x="603" 
d="M638 556q0 -52 -37.5 -96.5t-102.5 -68.5q-51 -19 -153 -23l32 -9q64 -18 84 -45.5t20 -97.5q0 -16 -1 -29l-7 -88q-3 -38 -3 -57q0 -38 24 -38q8 0 15 6q2 2 2 13t8 20t19 9q14 0 14 -15q0 -20 -22 -34.5t-53 -14.5q-100 0 -100 102q0 26 4 60l9 77q4 34 4 56
q0 50 -43 66q-15 5 -78 9l-125 -316q-3 -7 -3 -9q0 -15 35 -19q15 -2 18 -2l23 1q6 0 6 -5q0 -10 -22 -10q-35 0 -118 2q-42 1 -46 1q-12 0 -36 -1.5t-36 -1.5q-13 0 -13 8q0 6 28 7q39 1 53 10q12 6 32 56l221 564q4 8 4 14q0 19 -61 19q-10 2 -10 7q0 7 9 8t60 1l15 -1
t31 -1l49 -1q103 -2 121 -4q29 -2 56 -15q74 -35 74 -114zM542 556q0 87 -52 110q-18 8 -72 8q-16 0 -23 -12q-10 -17 -16 -32l-98 -253q12 -1 28 -1q102 0 167.5 50.5t65.5 129.5z" />
    <glyph glyph-name="S" unicode="S" horiz-adv-x="469" 
d="M559 697q0 -9 -18.5 -44t-33.5 -108q-4 -17 -13 -17q-7 0 -7 7v6q3 21 3 37q0 49 -32.5 78t-87.5 29q-61 0 -102.5 -36t-41.5 -89q0 -56 71 -127l60 -60q80 -80 80 -161q0 -93 -71.5 -159t-173.5 -66q-59 0 -99 22q-5 3 -44 32q-11 8 -22 8q-23 0 -38 -49q-4 -14 -11 -14
q-9 0 -9 10q0 1 9 23q33 81 59 159q8 24 20 24q7 0 7 -7q0 -2 -4 -12q-7 -11 -7 -50q0 -126 140 -126q71 0 115.5 41t44.5 107q0 76 -69 140l-56 52q-85 79 -85 156q0 81 66 140t157 59q50 0 100 -21q31 -13 40 -13q19 0 36 26q6 10 11 10q6 0 6 -7z" />
    <glyph glyph-name="T" unicode="T" horiz-adv-x="570" 
d="M729 694q-31 -86 -48 -147q-12 -42 -21 -42q-8 0 -8 8q0 4 8.5 35.5t8.5 57.5q0 51 -47 63q-19 5 -65 5q-28 0 -52 -2l-232 -579q-8 -20 -14.5 -35t-6.5 -19q0 -23 64 -23q9 0 9 -6q0 -11 -17 -11q-5 0 -26 1q-42 2 -99 2q-37 0 -79 -2q-14 -2 -35 -2q-11 0 -11 6
q0 12 20 12q3 0 9 -1h10q37 0 50.5 13t37.5 74l226 571h-40q-103 0 -153 -47q-29 -27 -70 -105q-6 -12 -14 -12q-5 0 -5 6q0 3 3 10l15 34q11 24 33 73q13 25 29 61q34 -2 250 -2q120 0 270 3z" />
    <glyph glyph-name="U" unicode="U" horiz-adv-x="647" 
d="M826 684q0 -9 -17 -9h-12q-6 1 -18 1q-28 0 -37 -7.5t-20 -39.5q-4 -11 -24 -62l-91 -229q-85 -215 -147 -276q-77 -76 -200 -76q-80 0 -127.5 33t-47.5 88q0 58 49 179l126 310q7 18 20 47q4 7 4 12q0 17 -25 20h-30q-10 0 -10 6q0 9 16 9h9l96 -1l115 1q11 0 11 -6
q0 -7 -5 -8t-37 -2q-28 -1 -32 -5q-7 -4 -15 -19q-9 -25 -25 -64l-123 -310q-50 -126 -50 -183q0 -38 27 -62t69 -24q121 0 192 100q48 68 114 237l88 226q29 74 29 85q0 21 -37 21h-9q-8 -1 -15 -1q-9 0 -9 7q0 8 16 8h15l137 -1q9 1 20 1q10 0 10 -6z" />
    <glyph glyph-name="V" unicode="V" horiz-adv-x="579" 
d="M777 684q0 -8 -34 -10q-53 -3 -72 -26q-6 -7 -56 -74l-281 -382q-30 -41 -58 -81q-86 -124 -89 -124q-4 0 -4 9q0 7 1 19q2 16 2 20l5 87l25 473q2 38 2 58q0 15 -17 19t-38 4q-24 0 -24 7q0 9 24 9q17 0 36 -1q37 -2 80 -2q26 0 82 1t63 1h17q8 0 8 -5q0 -11 -29 -14
h-36q-39 -1 -48.5 -3t-14.5 -11q-3 -5 -4 -19l-2 -35l-30 -438l301 404q51 68 51 86q0 15 -29 19h-42q-9 0 -9 5q0 7 14 8t89 1q117 0 117 -5z" />
    <glyph glyph-name="W" unicode="W" horiz-adv-x="866" 
d="M1059 685q0 -8 -32 -10q-37 -2 -51.5 -11t-40.5 -46q-10 -14 -31 -44l-391 -537q-31 -42 -40 -42q-7 0 -7 8q0 9 1 15v14l8 324l-246 -322q-32 -42 -41 -42q-6 0 -6 8l1 32l20 618q0 18 -19 22q-5 2 -34 3q-23 1 -23 7q0 10 15 10h10q3 0 45 -2q37 -2 71 -1l103 2
q8 1 18 1q8 0 8 -5q0 -7 -7.5 -8.5t-44.5 -5.5q-48 -5 -49 -23l-2 -45l-19 -471l198 259l3 250q0 20 -9.5 26.5t-37.5 6.5h-11q-10 0 -10 6q0 10 16 10h6q16 0 50.5 -1t37.5 -1l205 -2q19 0 66 4h11q15 0 15 -7q0 -8 -24 -9q-48 -3 -67 -13.5t-46 -48.5l-111 -153l-9 -324
l323 448q50 69 50 76q0 15 -24 15q1 0 -6.5 -1t-23.5 -1h-4q-18 0 -18 8q0 10 19 9l18 -1h82l72 -1q2 1 6 1q7 0 7 -5zM682 661q0 14 -50 14q-66 0 -66 -28v-9q1 -6 1 -12v-14l-3 -116l95 133q5 7 17 23q6 6 6 9z" />
    <glyph glyph-name="X" unicode="X" horiz-adv-x="624" 
d="M806 685q0 -10 -33 -10q-40 1 -63 -11q-19 -10 -50 -42q-15 -15 -44 -45l-191 -185l26 -238q11 -100 25 -120.5t67 -19.5q27 1 27 -6q0 -10 -18 -10q-10 0 -16 1q-28 2 -113 2q-16 0 -82.5 -1t-72.5 -1h-13q-16 0 -16 7t11.5 8t75.5 1q26 0 33 12v0q6 9 6 33q0 35 -5 82
l-19 179l-44 -49q-12 -13 -38 -42l-127 -129q-43 -44 -50.5 -53t-7.5 -18q0 -11 12 -13t67 -2q6 0 6 -4q0 -13 -25 -13h-15q-22 0 -56.5 2t-43.5 2q-14 0 -42 -2t-42 -2q-11 0 -11 6q0 12 21 12q61 1 96 34q18 15 52 46q6 5 51 53l194 204l-29 219q-9 71 -20.5 87t-51.5 16
h-9q-10 -1 -19 -1t-9 6q0 11 21 11q12 0 37 -1q50 -2 111 -2q18 0 70.5 1.5t57.5 1.5h5q9 0 9 -6q0 -12 -21 -12h-23q-37 0 -48 -3q-24 -7 -24 -34q0 -14 5 -58l18 -159l174 170l28 28q2 2 13 14q8 10 17 18t9 13q0 13 -52 13h-12q-10 0 -10 7q0 9 14 9q19 0 56.5 -1.5
t56.5 -1.5q12 0 34.5 1.5t42.5 1.5h6q11 0 11 -6z" />
    <glyph glyph-name="Y" unicode="Y" horiz-adv-x="543" 
d="M739 684q0 -5 -27 -8q-44 -4 -60 -15t-63 -67l-195 -233q-36 -43 -43 -54q-13 -20 -29 -61l-65 -169q-15 -39 -15 -41q0 -19 35 -21l22 -1l15 -1q10 1 10 -5q0 -9 -21 -9q-12 0 -69 2t-63 2q-35 0 -97 -4q-16 -1 -26 -1q-8 0 -8 6q0 7 7 8.5t51 4.5q31 2 42.5 12.5
t26.5 49.5l69 180q16 42 16 60q0 9 -3 48l-23 284q-2 19 -19 24q-7 2 -34 2t-27 8t14 8q9 0 15 -1l118 -2q79 -1 105 1q11 1 18 1q15 0 15 -7q0 -8 -29 -9q-49 -1 -65 -9t-16 -30q0 -15 2 -38l22 -258l215 256q47 56 47 64q0 14 -27 14q-51 0 -51 8q0 9 23 9h63h40
q29 -1 49 -1h22q13 0 13 -7z" />
    <glyph glyph-name="Z" unicode="Z" horiz-adv-x="570" 
d="M703 691q-12 -16 -50 -58l-420 -471q-24 -27 -85 -98q-9 -10 -35 -42q49 -4 147 -4q74 0 114 15t77 56q33 36 68 107q7 14 14 14t7 -7q0 -19 -86 -205q-42 2 -135 2l-325 -1q-5 -1 -13 -1t-8 5q0 1 15 16q26 28 79 85q3 4 22 23q59 62 99 106l386 430q-85 8 -120 8
q-98 0 -146.5 -29.5t-88.5 -112.5q-10 -21 -20 -21q-7 0 -7 9q0 7 19 47q8 16 23.5 49t39.5 82q72 -6 148 -6h128q59 0 94 2q18 1 34 1q14 0 25 -1z" />
    <glyph glyph-name="bracketleft" unicode="[" horiz-adv-x="324" 
d="M470 703q-1 -12 -3 -14t-15 -2h-93q-9 0 -13 -7q-4 -15 -8 -22l-275 -771q0 -9 19 -9h86q6 -2 6 -10q0 -13 -11 -12h-159q-26 0 -26 10q0 4 5 18l287 801q6 17 10 20t20 3h149q21 0 21 -5z" />
    <glyph glyph-name="backslash" unicode="\" horiz-adv-x="573" 
d="M521 4q0 -7 -10.5 -14t-20.5 -7q-6 0 -16 21l-303 658q-6 13 -6 15q0 7 11 14.5t21 7.5q6 0 13 -15l303 -660q8 -17 8 -20z" />
    <glyph glyph-name="bracketright" unicode="]" horiz-adv-x="330" 
d="M401 699q0 -5 -7 -25l-283 -789q-7 -20 -12 -23.5t-25 -3.5h-162q-4 0 -6 4l1 13q0 4 17 4h94q13 0 16 14l5 14l270 747q8 22 8 26q0 8 -19 8h-73q-15 0 -16 1.5t-2 13.5q1 6 19 6l153 -1q22 0 22 -9z" />
    <glyph glyph-name="asciicircum" unicode="^" horiz-adv-x="524" 
d="M541 325h-99q-66 99 -117 259q-46 -102 -105 -181q-62 -84 -78 -84q-10 0 -10 9t14 25q89 99 170 278q25 55 32 65.5t18 10.5q10 0 14.5 -9t24.5 -68q57 -169 136 -305z" />
    <glyph glyph-name="underscore" unicode="_" horiz-adv-x="517" 
d="M379 -136h-471v45h471v-45z" />
    <glyph glyph-name="grave" unicode="`" horiz-adv-x="517" 
d="M388 511q0 -8 -6 -8q-4 0 -11 12l-38 65q-25 43 -58 95h87l23 -148q2 -7 3 -16z" />
    <glyph glyph-name="a" unicode="a" horiz-adv-x="487" 
d="M501 426q0 -3 -8 -21l-132 -300q-19 -43 -19 -66q0 -26 26 -26q39 0 78 53q8 11 12 11t4 -4q0 -11 -22 -35q-44 -47 -105 -47q-31 0 -50.5 15t-19.5 39q0 15 7 35q-63 -93 -146 -93q-52 0 -85 33.5t-33 85.5q0 57 38 125t101 124q86 76 158 76q75 0 84 -72l25 53
q8 16 14 16q2 0 12 -2t14 -2q22 0 34 6q4 3 7 3q6 0 6 -7zM375 341q0 31 -18.5 50t-47.5 19q-50 0 -96 -59q-53 -67 -85 -141.5t-32 -130.5q0 -68 56 -68q32 0 69.5 35t62.5 88l78 168q13 28 13 39z" />
    <glyph glyph-name="b" unicode="b" horiz-adv-x="467" 
d="M462 304q0 -112 -104.5 -214.5t-218.5 -102.5q-53 0 -89.5 28.5t-36.5 68.5q0 23 30 92l211 482q3 11 8 18.5t5 8.5q0 11 -55 9q-8 0 -8 6q0 7 25 7q83 0 93 1l21 2h7q8 0 8 -6q0 -3 -3 -8q-10 -15 -21 -42l-95 -233q-10 -24 -27 -56q6 6 10 9l26 24q36 33 92 33
q53 0 87.5 -36t34.5 -91zM381 344q0 69 -52 69q-100 0 -182 -199l-24 -58q-35 -85 -35 -114q0 -40 53 -40q98 0 177 151q63 120 63 191z" />
    <glyph glyph-name="c" unicode="c" horiz-adv-x="356" 
d="M401 356q0 -49 -41 -49q-14 0 -25 10.5t-11 23.5q0 24 27 24l8 -1q7 -3 12 -4q8 0 8 11q0 16 -19.5 28.5t-43.5 12.5q-74 0 -143 -110q-71 -113 -71 -211q0 -84 76 -84q57 0 115 69q10 12 16 12q5 0 5 -6q0 -12 -26 -38q-57 -57 -128 -57q-65 0 -104.5 37.5t-39.5 99.5
q0 105 112 215q92 91 190 91q37 0 60 -20.5t23 -53.5z" />
    <glyph glyph-name="d" unicode="d" horiz-adv-x="507" 
d="M631 705q-1 -3 -3 -7q-4 -8 -11 -23l-228 -553q-26 -63 -26 -78q0 -28 32 -28q48 0 82 53q11 17 15 17q7 0 7 -8q0 -17 -34 -48q-42 -38 -101 -38q-75 0 -75 64q0 13 2 29q-37 -53 -71 -75.5t-80 -22.5q-56 0 -91.5 35.5t-35.5 92.5q0 118 112 223q101 95 193 95
q64 0 85 -61l6 12l7 15l114 274q4 5 4 9q0 7 -5.5 8.5t-37.5 3.5q-19 1 -19 7t11 6h12q13 0 37.5 -1t35.5 -1q38 0 49 4q6 2 8 2q6 0 6 -6zM390 352q0 23 -21 41t-47 18q-74 0 -151 -124q-73 -117 -73 -198q0 -73 66 -73q58 0 114 81q40 57 69 133l23 59q20 51 20 63z" />
    <glyph glyph-name="e" unicode="e" horiz-adv-x="380" 
d="M415 362q0 -54 -58 -89.5t-147 -35.5q-32 0 -71 5q-37 -77 -37 -143q0 -89 79 -89q61 0 119 64q13 14 17 14q5 0 5 -5q0 -23 -47 -57q-54 -39 -112 -39q-65 0 -107 38t-42 96q0 112 122 217q107 92 191 92q88 0 88 -68zM344 379q0 31 -31 31q-32 0 -63 -24
q-56 -44 -103 -131q12 -1 27 -1q56 0 109 34q61 38 61 91z" />
    <glyph glyph-name="f" unicode="f" horiz-adv-x="269" 
d="M508 643q0 -39 -37 -39q-13 0 -22.5 8.5t-9.5 19.5q0 8 13 23q4 8 4 13q0 25 -42 25q-44 0 -71 -37.5t-68 -152.5l-27 -76h103q5 1 13 1q11 0 11 -11t-14 -11l-117 1l-87 -238q-94 -257 -183 -359q-36 -41 -66.5 -57.5t-72.5 -16.5q-85 0 -85 57q0 41 44 41q30 0 30 -25
q0 -8 -10 -21q-6 -7 -6 -13q0 -22 30 -22q52 0 89 50q29 40 76 173l151 429h-23l-50 -1q-8 -1 -18 -1q-12 0 -12 8q0 15 25 18q2 0 36 -1l36 -1h14q60 143 98 195q63 85 159 85q40 0 64.5 -17.5t24.5 -46.5z" />
    <glyph glyph-name="g" unicode="g" horiz-adv-x="433" 
d="M483 392q0 -32 -30 -32q-28 0 -28 27q0 3 1 6.5t2 9.5q0 5 -6 5q-10 0 -28.5 -21.5t-18.5 -32.5q0 -5 4 -12q12 -28 12 -61q0 -71 -47.5 -120.5t-126.5 -49.5q-58 0 -104 33q-77 -27 -77 -60q0 -21 30 -26q56 -9 63 -7h83q57 0 82 -6q74 -18 74 -108q0 -80 -57 -138
q-61 -62 -169 -62q-78 0 -138 36q-73 44 -73 103q0 41 37 68q17 12 75 34q-58 24 -58 70q0 76 116 109q-32 42 -32 85q0 77 56.5 132.5t134.5 55.5q60 0 102 -54q37 57 78 57q43 0 43 -41zM321 343q0 70 -58 70q-48 0 -86 -84q-33 -72 -33 -135q0 -65 64 -65q47 0 81 77
q32 72 32 137zM339 -100q0 25 -16 44.5t-40 24.5q-33 7 -105 6l-113 -2q-62 -31 -62 -96q0 -55 39.5 -88.5t104.5 -33.5q77 0 134.5 43.5t57.5 101.5z" />
    <glyph glyph-name="h" unicode="h" horiz-adv-x="501" 
d="M479 74q0 -7 -19 -23q-71 -60 -129 -60q-28 0 -45 15.5t-17 40.5q0 21 24 75l88 197q22 49 22 61q0 31 -33 31q-41 0 -100 -56q-45 -43 -68.5 -78t-55.5 -108l-65 -146q-8 -19 -11 -22t-12 -3q-4 0 -27 2q-31 -2 -34.5 -3t-7.5 -1t-4 3q0 4 7 20l275 626q15 34 15 39
q0 8 -4.5 9t-32.5 1q-24 0 -24 10q0 5 7 5t11 -1l74 -1q22 0 42 3q12 2 16 2q9 0 9 -7t-4 -12q-7 -17 -13 -27l-162 -359q63 71 105 98.5t88 27.5q37 0 60.5 -17.5t23.5 -44.5q0 -30 -23 -83l-91 -209q-17 -39 -17 -47q0 -15 15 -15q33 0 92 50q15 13 20 13t5 -6z" />
    <glyph glyph-name="i" unicode="i" horiz-adv-x="240" 
d="M325 611q0 -42 -39 -42q-20 0 -33 12.5t-13 31.5q0 41 46 41q39 0 39 -43zM256 424q0 -3 -5 -12q-7 -12 -23 -49l-115 -263q-23 -53 -23 -66q0 -27 28 -27q19 0 43.5 13.5t37.5 32.5q9 12 14 12q6 0 6 -6q0 -12 -28 -36q-42 -36 -95 -36q-35 0 -57.5 18t-22.5 46
q0 25 25 81l104 232q5 17 12 26q3 4 3 7q0 9 -44 12q-8 2 -8 7q0 9 8 9q1 0 15 -2t45 -2q42 0 59 7q10 4 14 4q7 0 7 -8z" />
    <glyph glyph-name="j" unicode="j" horiz-adv-x="235" 
d="M337 617q0 -22 -15 -37.5t-37 -15.5q-39 0 -39 36q0 23 15 39t36 16q17 0 28.5 -11t11.5 -27zM254 423q0 -5 -11 -32l-133 -324q-78 -189 -163 -270q-57 -54 -125 -54q-80 0 -80 52q0 17 12 29.5t28 12.5q14 0 24 -9t10 -22q0 -6 -5 -17t-5 -15q0 -17 27 -17q38 0 63 28
q34 38 98 197l164 408q2 3 3 6q0 8 -22 10q-34 2 -34 10t11 8q2 0 21 -2t51 -2q27 0 46 7q8 3 12 3q8 0 8 -7z" />
    <glyph glyph-name="k" unicode="k" horiz-adv-x="493" 
d="M514 388q0 -19 -11.5 -32t-28.5 -13q-30 0 -30 29v23q0 25 -17 25q-22 0 -110 -103q-33 -39 -42 -47t-27 -15l20 -3q74 -11 74 -67q0 -39 -12 -107q-5 -28 -5 -45q0 -20 18 -20q27 0 56.5 34.5t41.5 80.5q5 18 14 18q8 0 8 -9q0 -18 -30 -72q-41 -74 -117 -74
q-71 0 -71 72q0 34 16 106q5 23 5 43q0 23 -26 31q-17 5 -36 5q-10 0 -30 -3l-98 -233l-8 -6l-20 -2l-25 -3l-22 -3q-4 -2 -6 -2q-6 0 -6 6q0 4 5 13q1 2 12 28l245 586q3 9 10 25l7 18q3 6 3 9q0 12 -19 12q-8 0 -23.5 -1.5t-23.5 -1.5q-11 0 -11 6q0 7 6.5 8t44.5 1
q87 1 108 6q7 4 11 4q5 0 5 -5t-20 -52l-144 -338l-22 -55l34 -1q22 0 33.5 9t52.5 57q56 66 86 88.5t62 22.5q63 0 63 -53z" />
    <glyph glyph-name="l" unicode="l" horiz-adv-x="243" 
d="M361 700q0 -2 -5 -14q-3 -8 -10 -24l-224 -547q-25 -61 -25 -79q0 -27 36 -27t72 42q15 18 19 18q7 0 7 -7q0 -13 -33 -42q-38 -34 -98 -34q-82 0 -82 61q0 20 25 81l224 546q3 6 3 7q0 9 -19 9q-44 0 -44 8q0 6 9 6t27.5 -1t27.5 -1q43 0 64 4q11 2 15 2q11 0 11 -8z
" />
    <glyph glyph-name="m" unicode="m" horiz-adv-x="691" 
d="M663 354q0 -27 -25 -84l-74 -168q-18 -41 -18 -59q0 -20 23 -20q35 0 68 37q12 13 19 13q6 0 6 -4q0 -12 -34 -36q-50 -36 -92 -36q-28 0 -45.5 14.5t-17.5 37.5q0 25 22 76l73 169q26 60 26 78q0 35 -30 35q-47 0 -101 -67q-35 -43 -89 -170l-60 -141q-14 -33 -21 -33
q-5 0 -8 1q-15 2 -26 2q-6 0 -16.5 -1.5t-15.5 -1.5q-7 0 -7 5q0 3 4 11t11 23l104 247q33 78 33 102q0 28 -30 28q-39 0 -96 -65q-17 -20 -53 -70q-13 -18 -37 -75l-75 -176q-12 -28 -18 -28q-5 0 -8 1q-16 2 -19 2q-31 0 -37 -3q-2 -1 -6 -1q-5 0 -5 5q5 11 12 24l158 367
q3 5 3 7q0 9 -18 9q-28 0 -28 10q0 7 10 7q9 0 28 -2t28 -2q45 0 57 7l6 2q6 0 6 -7q0 -2 -9 -22q-7 -14 -19 -49l-5 -14q9 10 38 42q45 51 110 51q41 0 58 -21t19 -74q64 94 138 94q38 0 60.5 -21t22.5 -56z" />
    <glyph glyph-name="n" unicode="n" horiz-adv-x="492" 
d="M464 351q0 -24 -26 -83l-81 -183q-14 -32 -14 -43q0 -21 23 -21q28 0 82 46q5 3 8 3q6 0 6 -5q0 -12 -33 -35q-45 -31 -96 -31q-31 0 -51 13.5t-20 34.5q0 17 19 60l80 179q29 65 29 88q0 34 -35 34q-46 0 -108 -66q-47 -50 -86 -140l-82 -190q-5 -15 -13 -15q-2 0 -22 2
q-3 1 -12 1q-8 0 -27 -2q-3 -1 -7 -1q-7 0 -7 5q0 2 3 6l7 15l153 368q3 5 5 9q-1 7 -25 8q-30 1 -30 11q0 7 11 7q7 0 22 -2t23 -2q54 0 71 8q7 3 9 3q6 0 6 -6q0 -3 -1 -5l-37 -94q8 9 23 25q74 78 143 78q40 0 65 -22.5t25 -57.5z" />
    <glyph glyph-name="o" unicode="o" horiz-adv-x="462" 
d="M442 269q0 -117 -107 -211q-84 -74 -175 -74q-62 0 -102 43t-40 111q0 58 33 119t88 104q86 67 166 67q61 0 99 -44t38 -115zM365 334q0 76 -68 76q-83 0 -144 -119q-58 -114 -58 -214q0 -75 67 -75q84 0 140 108q63 122 63 224z" />
    <glyph glyph-name="p" unicode="p" horiz-adv-x="485" 
d="M480 314q0 -116 -95 -220.5t-201 -104.5q-68 0 -92 61l-84 -207q-8 -19 -11 -31q-9 -25 -20 -44q73 -3 73 -10q0 -8 -25 -8q-22 0 -54 2l-30 2q1 0 -18 -1q-22 -1 -43 -2l-40 -1q-21 -1 -21 8q0 10 28 11q37 2 46 9t26 47l224 538q17 41 17 43q0 8 -12 8h-10
q-5 -1 -16 -1q-18 0 -18 8q0 7 12 7h16q80 0 104 6q8 2 10 2q6 0 6 -6t-28 -68q46 41 73.5 55.5t60.5 14.5q53 0 87.5 -33t34.5 -85zM395 349q0 59 -53 59q-52 0 -106 -62q-42 -48 -83 -151l-33 -82q-11 -27 -11 -40q0 -26 20 -45t48 -19q81 0 154 136q64 119 64 204z" />
    <glyph glyph-name="q" unicode="q" horiz-adv-x="466" 
d="M488 426q0 -5 -20 -55l-242 -607l27 -2q36 -3 36 -9q0 -7 -19 -7t-56.5 2t-56.5 2q-3 0 -19 -1t-45 -1h-18q-10 0 -10 6q0 10 42 11q30 1 35 6l7 12q4 7 12 27l79 202q6 7 9 19q-32 -24 -54 -34.5t-54 -10.5q-55 0 -91.5 36.5t-36.5 91.5q0 53 27.5 112.5t73.5 105.5
q98 98 194 98q62 0 85 -62l5 16l5 20q5 21 15 21q9 0 17 -1h6q21 0 34 7q6 2 8 2q5 0 5 -7zM378 350q0 25 -20 41.5t-50 16.5q-71 0 -129 -93q-83 -132 -83 -227q0 -35 18.5 -56.5t49.5 -21.5q49 0 91 51q26 32 59 114l49 123q15 38 15 52z" />
    <glyph glyph-name="r" unicode="r" horiz-adv-x="337" 
d="M405 384q0 -20 -13 -34.5t-30 -14.5q-16 0 -16 11l2 10q2 6 2 11q0 24 -24 24q-29 0 -81 -56t-98 -157l-72 -158q-10 -23 -17 -23q-20 3 -31 3q-17 0 -27 -2h-6q-9 0 -9 4q0 1 3 4l5 10l169 384q0 8 -13 8q1 0 -4 0q-4 -1 -13 -1h-10q-15 0 -15 7q0 6 52 8t70 9q8 2 9 2
q6 0 6 -6q0 -5 -13 -37l-37 -90q92 128 162 128q49 0 49 -44z" />
    <glyph glyph-name="s" unicode="s" horiz-adv-x="346" 
d="M380 354q0 -17 -11 -29t-26 -12q-30 0 -30 29q0 24 20 24q3 0 9.5 -3t10.5 -3q6 0 6 7q0 17 -23 33t-47 16q-32 0 -54 -20.5t-22 -49.5q0 -25 47 -139q11 -27 11 -61q0 -68 -46 -114t-115 -46q-60 0 -100.5 33.5t-40.5 82.5q0 28 16.5 46t41.5 18q19 0 32.5 -13t13.5 -31
q0 -30 -29 -30q-31 0 -31 21q0 7 2.5 14t2.5 8q0 10 -8 10q-9 0 -16.5 -13.5t-7.5 -29.5q0 -39 32.5 -68t76.5 -29q41 0 68.5 25t27.5 63q0 27 -21 88q-20 58 -20 96q0 65 39.5 109.5t96.5 44.5q38 0 66 -23t28 -54z" />
    <glyph glyph-name="t" unicode="t" horiz-adv-x="255" 
d="M338 419q0 -14 -42 -15l-38 -1h-18l-135 -303q-22 -49 -22 -62q0 -21 31 -21q45 0 80 48q8 10 12 10q8 0 8 -7q0 -13 -33 -42q-38 -33 -91 -33q-36 0 -58.5 18t-22.5 46q0 18 23 67l131 281h-41q-17 0 -17 7q0 13 14 13h9q5 -1 16 -1q14 0 27 1l17 43q9 22 14 22t15.5 -2
t16.5 -2q11 0 32 10q4 2 7 2q5 0 5 -4l-11 -24l-22 -48l24 1l38 2q5 0 12 1t8 1q11 0 11 -8z" />
    <glyph glyph-name="u" unicode="u" horiz-adv-x="488" 
d="M498 418l-2 -5l-7 -16l-112 -261q-34 -79 -34 -98q0 -27 26 -27q37 0 82 52q11 13 15 13q6 0 6 -6q0 -24 -59 -60q-35 -21 -72 -21q-29 0 -51 16t-22 37q0 12 9 37l12 34q-67 -77 -101.5 -100t-84.5 -23q-39 0 -64 15.5t-25 40.5q0 27 22 76l103 231q4 9 17 35q3 5 3 7
q0 8 -24 8q-32 0 -32 11q0 7 7 7q8 0 23 -2t23 -2q52 0 77 9q6 2 8 2q5 0 5 -6q0 -8 -20 -50.5t-37 -87.5q-4 -11 -31 -73l-40 -92q-25 -57 -25 -81q0 -29 37 -29q39 0 101 64q70 72 116 182l64 152q5 12 11 12q-1 0 21 -2h8q27 0 35 3q5 2 7 2q5 0 5 -4z" />
    <glyph glyph-name="v" unicode="v" horiz-adv-x="437" 
d="M432 373q0 -74 -28.5 -153t-77.5 -140q-75 -93 -154 -93q-43 0 -71 23.5t-28 60.5q0 46 39 138l58 137q12 28 12 37q0 21 -24 21q-20 0 -53.5 -29.5t-48.5 -59.5q-7 -15 -15 -15q-9 0 -9 7q0 22 55 74q52 49 102 49q31 0 50 -16t19 -42q0 -28 -19 -72l-56 -130
q-28 -65 -28 -110q0 -52 43 -52q63 0 137.5 115t74.5 214q0 33 -14 33q-1 0 -9.5 -2.5t-14.5 -2.5q-27 0 -27 25q0 16 12.5 27.5t29.5 11.5q45 0 45 -56z" />
    <glyph glyph-name="w" unicode="w" horiz-adv-x="672" 
d="M661 371q0 -139 -83.5 -262t-176.5 -123q-32 0 -56 20.5t-31 55.5q-3 14 -3 48q-59 -123 -149 -123q-40 0 -66 24t-26 61q0 49 28 113l60 138q15 35 15 57q0 27 -23 27q-20 0 -51 -26.5t-47 -57.5q-5 -11 -11 -11t-6 8q0 18 39 58q52 53 107 53q73 0 73 -58
q0 -40 -32 -111l-59 -130q-23 -51 -23 -85q0 -42 34 -42q83 0 170 210l51 123l19 57q3 12 14 13l12 1l24 3l28 5q11 2 9 2q8 0 8 -6q0 -4 -4 -8q-5 -10 -11 -25l-94 -235q-22 -55 -22 -90q0 -49 43 -49q72 0 157 141q63 105 63 203q0 22 -13 22q-2 0 -10 -3q-2 -1 -8 -1
q-29 0 -29 25q0 15 12 26t29 11q39 0 39 -59z" />
    <glyph glyph-name="x" unicode="x" horiz-adv-x="468" 
d="M516 378q0 -35 -33 -35q-29 0 -29 24q0 8 14 19q4 3 4 11q0 20 -25 20q-35 0 -82 -57q-29 -35 -42 -59q-14 -28 -32 -85l-8 -26q-24 -78 -24 -130q0 -56 42 -56q29 0 60.5 25.5t51.5 63.5q12 23 18 23q5 0 5 -6q0 -20 -30 -58q-52 -65 -125 -65q-97 0 -97 87q0 18 3 40
q-36 -68 -70.5 -97t-78.5 -29q-70 0 -70 61q0 20 12 34t30 14q32 0 32 -28q0 -13 -25 -32q-4 -1 -4 -10q0 -22 33 -22q45 0 91.5 61t70.5 150l12 44q17 62 17 88q0 58 -42 58q-61 0 -111 -78q-12 -18 -20 -18q-6 0 -6 7q0 15 36 52q59 61 121 61q52 0 75.5 -24t27.5 -81
q66 106 137 106q27 0 44 -15t17 -38z" />
    <glyph glyph-name="y" unicode="y" horiz-adv-x="484" 
d="M544 398q0 -35 -34 -35q-16 0 -23 19q-2 4 -5 4q-10 0 -43 -54l-103 -168q-6 -11 -141 -216q-70 -107 -145 -168q-44 -36 -87 -36q-45 0 -45 33q0 17 12 28t30 11q13 0 16.5 -4t4.5 -24q1 -15 14 -15q18 0 55.5 32t70.5 75q50 65 50 113q0 14 -1 25v24l-2 288
q0 69 -30 69q-36 0 -69 -77q-12 -28 -20 -28t-8 9q0 20 30 65q45 67 106 67q45 0 57 -30q9 -23 9 -77v-27l-3 -178q0 -37 2 -74l16 24q10 18 32 54l32 49l86 142q49 80 63.5 97t37.5 17q35 0 35 -34z" />
    <glyph glyph-name="z" unicode="z" horiz-adv-x="403" 
d="M409 420q0 -19 -28 -45q-20 -18 -41 -36q-181 -156 -277 -268q39 10 60 10q41 0 132 -37q34 -14 50 -14t27.5 12t11.5 29q0 19 -30 28q-11 6 -11 20q0 32 34 32q33 0 33 -38q0 -58 -45 -100q-38 -35 -65 -35q-11 0 -62 15q-143 42 -158 42q-12 0 -15 -17q-3 -20 -19 -20
q-12 0 -12 10q0 16 21 40q18 19 52 57q119 131 220 214q17 14 45 39q-56 -19 -103 -19q-59 0 -107 31q-8 5 -12 5q-7 0 -11 -7t-16 -42q-5 -14 -14 -14q-7 0 -7 7q0 3 4 11q10 19 34 97q3 15 11 15q5 0 34 -12q92 -38 181 -38q60 0 60 23q0 2 -1 8q-1 2 -1 5q0 11 13 11
q12 0 12 -19z" />
    <glyph glyph-name="braceleft" unicode="{" horiz-adv-x="375" 
d="M512 706q0 -7 -11 -7q-53 -1 -76.5 -21t-41.5 -81q-3 -10 -15 -51q-4 -14 -8 -24l-30 -77q-49 -126 -199 -142q44 -7 71 -36t27 -70q0 -45 -28 -105l-32 -69q-22 -47 -22 -89q0 -44 78 -44q7 0 7 -6q0 -7 -12 -7q-147 0 -147 85q0 29 23 87l36 90q26 65 26 102
q0 56 -66 59q-23 1 -23 7q0 5 9 5h12h18q10 -1 14 -1q51 0 82 37q17 21 39 87l35 107q21 65 46.5 98t68.5 52q47 21 109 21q10 0 10 -7z" />
    <glyph glyph-name="bar" unicode="|" horiz-adv-x="517" 
d="M308 -172h-57v861h57v-861z" />
    <glyph glyph-name="braceright" unicode="}" horiz-adv-x="378" 
d="M383 303q0 -5 -4.5 -6t-33.5 -1q-38 0 -62 -12q-29 -15 -38.5 -29.5t-31.5 -78.5l-40 -114q-25 -70 -51.5 -105t-72.5 -57t-103 -22q-17 0 -17 7t20 8q50 3 70 23t45 88l46 124q32 87 77.5 126t133.5 51q-44 8 -70.5 36t-26.5 65q0 34 33 118l24 61q16 41 16 73
q0 30 -25 39q-14 5 -51 5q-9 0 -9 6q0 7 12 7q54 0 91 -12q56 -18 56 -77q0 -24 -19 -76l-32 -87q-25 -68 -25 -99q0 -56 78 -55q10 0 10 -6z" />
    <glyph glyph-name="asciitilde" unicode="~" horiz-adv-x="604" 
d="M698 749q-58 -100 -140 -100q-21 0 -64 14q-89 29 -121 29q-27 0 -45.5 -11.5t-47.5 -47.5l-15 10q61 100 142 100q29 0 94 -22q56 -19 81 -19q56 0 101 56z" />
    <glyph glyph-name="Adieresis" unicode="&#xc4;" horiz-adv-x="627" 
d="M707 800q0 -22 -15.5 -38t-37.5 -16q-44 0 -44 41q0 23 16.5 39.5t39.5 16.5q41 0 41 -43zM532 796q0 -22 -16 -37t-39 -15q-42 0 -42 41q0 24 16.5 40t41.5 16q17 0 28 -13t11 -32zM593 9q0 -10 -34 -11q37 1 -39 2l-76 1l-132 -1q-7 -1 -16 -1q-17 0 -17 12q0 9 11 9
t22 -1h11q27 0 48 9q14 6 21 56l20 135q1 3 1 8q0 7 -36 7h-89q-47 -1 -51 -1h-16q-6 -6 -26 -30l-93 -128q-19 -26 -19 -36q0 -21 55 -21q6 0 18 1.5t18 1.5q14 0 14 -10q0 -11 -27 -11l-55 1l-91 -2q-65 -1 -82 1.5t-17 11.5q0 8 10 8q7 0 20 -2t20 -2q34 0 57 13
q16 9 65 74l289 380q26 34 79 101l88 114q10 13 17 13q10 0 10 -14q0 -23 -7 -55q-13 -60 -28 -181l-44 -356q-6 -49 -6 -54q0 -29 36 -31l59 -3q12 -1 12 -8zM460 536q0 9 -4 9q-6 0 -11 -12.5t-9 -15.5q-6 -7 -32 -42l-107 -144q-18 -24 -47 -62q-5 -4 -6 -7q0 -8 14 -7
l20 1l50 -1q74 -1 90 7l31 205q3 20 9 55q2 10 2 14z" />
    <glyph glyph-name="Aring" unicode="&#xc5;" horiz-adv-x="627" 
d="M655 824q0 -34 -23.5 -58t-58.5 -24q-37 0 -60 23t-23 59t23.5 59.5t60.5 23.5q34 0 57.5 -24t23.5 -59zM593 9q0 -10 -34 -11q37 1 -39 2l-76 1l-132 -1q-7 -1 -16 -1q-17 0 -17 12q0 9 11 9t22 -1h11q27 0 48 9q14 6 21 56l20 135q1 3 1 8q0 7 -36 7h-89q-47 -1 -51 -1
h-16q-6 -6 -26 -30l-93 -128q-19 -26 -19 -36q0 -21 55 -21q6 0 18 1.5t18 1.5q14 0 14 -10q0 -11 -27 -11l-55 1l-91 -2q-65 -1 -82 1.5t-17 11.5q0 8 10 8q7 0 20 -2t20 -2q34 0 57 13q16 9 65 74l289 380q26 34 79 101l88 114q10 13 17 13q10 0 10 -14q0 -23 -7 -55
q-13 -60 -28 -181l-44 -356q-6 -49 -6 -54q0 -29 36 -31l59 -3q12 -1 12 -8zM633 825q0 26 -18 45t-42 19q-25 0 -43.5 -19.5t-18.5 -45.5t18.5 -44.5t43.5 -18.5t42.5 19t17.5 45zM460 536q0 9 -4 9q-6 0 -11 -12.5t-9 -15.5q-6 -7 -32 -42l-107 -144q-18 -24 -47 -62
q-5 -4 -6 -7q0 -8 14 -7l20 1l50 -1q74 -1 90 7l31 205q3 20 9 55q2 10 2 14z" />
    <glyph glyph-name="Ccedilla" unicode="&#xc7;" horiz-adv-x="573" 
d="M688 650q0 -13 -15 -42q-46 -89 -55 -125q-4 -16 -12 -16t-8 10q0 3 7 25q6 19 6 49q0 62 -32 98t-87 36q-129 0 -219 -142q-98 -155 -98 -329q0 -184 134 -184q50 0 90 24q77 46 110 105q13 23 22 23q6 0 6 -8q0 -17 -35.5 -59.5t-70.5 -67.5q-73 -53 -158 -60l-9 -22
q34 -2 47 -9q21 -12 21 -42q0 -41 -35 -70.5t-84 -29.5q-24 0 -44.5 9t-20.5 20q0 6 5 6q3 0 7 -3q22 -16 39 -16q35 0 59.5 28t24.5 68q0 29 -32 29h-5l11 32q-91 0 -141 56t-50 157t45.5 204t122.5 178q126 122 259 122q55 0 96 -27q4 -2 42 -34q11 -9 20 -9q12 0 23 19
q4 4 8 4q6 0 6 -7z" />
    <glyph glyph-name="Eacute" unicode="&#xc9;" horiz-adv-x="573" 
d="M666 903q0 -5 -20 -20l-143 -106q-55 -41 -61 -41q-3 0 -3 3l8 10l127 159h75q17 2 17 -5zM675 683q0 -1 -2 -5q-5 -8 -11 -28q-17 -59 -27.5 -100.5t-18.5 -41.5q-6 0 -6 8l1 7q13 32 13 77q0 49 -31.5 61.5t-106.5 13.5l-67 1q-17 0 -25 -20l-34 -90l-75 -192
q36 -3 47 -3q51 0 89 26t53 71q5 15 12 15q9 0 9 -8q0 -2 -4 -11q-57 -122 -99 -249q-3 -14 -10 -14t-7 7q0 4 2 11q15 53 15 77q0 32 -22 45t-78 13q-16 0 -24 -20l-108 -266q-12 -30 -12 -35q0 -9 18 -10l52 -2q26 -1 54 -1q145 0 199 63q28 32 52 105q7 20 17 20
q7 0 7 -7q0 -4 -10 -30q-38 -99 -56 -155q-4 -11 -9 -14t-23 -3h-339q-124 0 -144.5 1t-20.5 8q0 6 9 7t58 1q19 0 26 7t21 41l202 488q9 19 26.5 62t17.5 53q0 8 -9.5 9.5t-65.5 2.5q-12 0 -12 6q0 10 19 10h29q27 -1 66 -1l298 -2q18 0 22 1h6q17 0 17 -10z" />
    <glyph glyph-name="Ntilde" unicode="&#xd1;" horiz-adv-x="686" 
d="M714 838q0 -1 -3 -6.5t-10 -16.5q-42 -68 -94 -68q-19 0 -32.5 6t-56.5 36q-35 24 -56 24q-10 0 -19 -10t-9 -22q0 -10 5.5 -16t5.5 -8q0 -7 -8 -7q-7 0 -12.5 10t-5.5 21q0 26 30.5 48.5t65.5 22.5t89 -39q31 -22 47 -22q18 0 40 36q10 16 16 16q7 0 7 -5zM856 684
q0 -12 -29 -11l-45 1q-22 0 -30 -15l-8 -23l-15 -38l-200 -532q-5 -10 -15 -33l-6 -16q-9 -23 -14 -23q-9 0 -15 26l-158 637l-197 -547q-26 -72 -26 -81q0 -12 33 -12h12q8 0 16 1h8q34 0 34 -10t-15 -10q-7 0 -28 1q-42 2 -84 2q-5 0 -32 -1t-49 -1h-23q-17 0 -17 8t24 11
h13q5 0 36 2t42 19q4 9 12 28l19 50l196 542l4 8q0 8 -28 8q-48 0 -58 -1h-16q-20 0 -20 11q0 12 18 12q5 0 23 -1q36 -2 110 -2q57 0 77 2l138 -535l161 438q21 57 21 67q0 9 -14 9q3 0 -32 -1l-35 -1q-21 -1 -21 9q0 12 21 12l121 -2h19q15 1 28 1h31q13 0 13 -9z" />
    <glyph glyph-name="Odieresis" unicode="&#xd6;" horiz-adv-x="710" 
d="M685 800q0 -22 -15.5 -38t-37.5 -16q-44 0 -44 41q0 23 16.5 39.5t39.5 16.5q41 0 41 -43zM510 796q0 -22 -16 -37t-39 -15q-42 0 -42 41q0 24 16.5 40t41.5 16q17 0 28 -13t11 -32zM739 469q0 -104 -52 -204.5t-142 -172.5q-133 -105 -266 -105q-100 0 -156 55.5
t-56 155.5q0 101 52 207.5t140 183.5q132 116 270 116q101 0 157 -73q53 -69 53 -163zM644 533q0 57 -22 101q-28 57 -101 57q-125 0 -237 -181q-55 -89 -87.5 -189t-32.5 -181q0 -139 126 -139q75 0 147 63q96 83 154 235q53 138 53 234z" />
    <glyph glyph-name="Udieresis" unicode="&#xdc;" horiz-adv-x="647" 
d="M690 800q0 -22 -15.5 -38t-37.5 -16q-44 0 -44 41q0 23 16.5 39.5t39.5 16.5q41 0 41 -43zM515 796q0 -22 -16 -37t-39 -15q-42 0 -42 41q0 24 16.5 40t41.5 16q17 0 28 -13t11 -32zM826 684q0 -9 -17 -9h-12q-6 1 -18 1q-28 0 -37 -7.5t-20 -39.5q-4 -11 -24 -62
l-91 -229q-85 -215 -147 -276q-77 -76 -200 -76q-80 0 -127.5 33t-47.5 88q0 58 49 179l126 310q7 18 20 47q4 7 4 12q0 17 -25 20h-30q-10 0 -10 6q0 9 16 9h9l96 -1l115 1q11 0 11 -6q0 -7 -5 -8t-37 -2q-28 -1 -32 -5q-7 -4 -15 -19q-9 -25 -25 -64l-123 -310
q-50 -126 -50 -183q0 -38 27 -62t69 -24q121 0 192 100q48 68 114 237l88 226q29 74 29 85q0 21 -37 21h-9q-8 -1 -15 -1q-9 0 -9 7q0 8 16 8h15l137 -1q9 1 20 1q10 0 10 -6z" />
    <glyph glyph-name="aacute" unicode="&#xe1;" horiz-adv-x="487" 
d="M531 672q0 -5 -20 -20l-143 -106q-55 -41 -61 -41q-3 0 -3 2t2 5l6 6l127 159h75q17 2 17 -5zM501 426q0 -3 -8 -21l-132 -300q-19 -43 -19 -66q0 -26 26 -26q39 0 78 53q8 11 12 11t4 -4q0 -11 -22 -35q-44 -47 -105 -47q-31 0 -50.5 15t-19.5 39q0 15 7 35
q-63 -93 -146 -93q-52 0 -85 33.5t-33 85.5q0 57 38 125t101 124q86 76 158 76q75 0 84 -72l25 53q8 16 14 16q2 0 12 -2t14 -2q22 0 34 6q4 3 7 3q6 0 6 -7zM375 341q0 31 -18.5 50t-47.5 19q-50 0 -96 -59q-53 -67 -85 -141.5t-32 -130.5q0 -68 56 -68q32 0 69.5 35
t62.5 88l78 168q13 28 13 39z" />
    <glyph glyph-name="agrave" unicode="&#xe0;" horiz-adv-x="487" 
d="M372 511q0 -8 -6 -8q-4 0 -11 12l-38 65q-25 43 -58 95h87l23 -148q2 -7 3 -16zM501 426q0 -3 -8 -21l-132 -300q-19 -43 -19 -66q0 -26 26 -26q39 0 78 53q8 11 12 11t4 -4q0 -11 -22 -35q-44 -47 -105 -47q-31 0 -50.5 15t-19.5 39q0 15 7 35q-63 -93 -146 -93
q-52 0 -85 33.5t-33 85.5q0 57 38 125t101 124q86 76 158 76q75 0 84 -72l25 53q8 16 14 16q2 0 12 -2t14 -2q22 0 34 6q4 3 7 3q6 0 6 -7zM375 341q0 31 -18.5 50t-47.5 19q-50 0 -96 -59q-53 -67 -85 -141.5t-32 -130.5q0 -68 56 -68q32 0 69.5 35t62.5 88l78 168
q13 28 13 39z" />
    <glyph glyph-name="acircumflex" unicode="&#xe2;" horiz-adv-x="487" 
d="M456 706q0 -3 -4 -22l-34 -163q-2 -15 -12 -15q-35 0 -35 12q0 2 2 11l13 61q2 8 6 21q3 6 3 11q0 6 -4 6q-2 -1 -5 -5q-7 -10 -68 -63q-40 -35 -49 -35q-11 0 -11 6q0 5 15 15q33 21 82 68.5t73 81.5q13 19 19 19q9 0 9 -9zM501 426q0 -3 -8 -21l-132 -300
q-19 -43 -19 -66q0 -26 26 -26q39 0 78 53q8 11 12 11t4 -4q0 -11 -22 -35q-44 -47 -105 -47q-31 0 -50.5 15t-19.5 39q0 15 7 35q-63 -93 -146 -93q-52 0 -85 33.5t-33 85.5q0 57 38 125t101 124q86 76 158 76q75 0 84 -72l25 53q8 16 14 16q2 0 12 -2t14 -2q22 0 34 6
q4 3 7 3q6 0 6 -7zM375 341q0 31 -18.5 50t-47.5 19q-50 0 -96 -59q-53 -67 -85 -141.5t-32 -130.5q0 -68 56 -68q32 0 69.5 35t62.5 88l78 168q13 28 13 39z" />
    <glyph glyph-name="adieresis" unicode="&#xe4;" horiz-adv-x="487" 
d="M479 567q0 -22 -16 -37.5t-38 -15.5q-43 0 -43 40q0 24 16 40.5t40 16.5q41 0 41 -44zM310 564q0 -22 -16 -37t-39 -15q-42 0 -42 41q0 24 16.5 40t41.5 16q39 0 39 -45zM501 426q0 -3 -8 -21l-132 -300q-19 -43 -19 -66q0 -26 26 -26q39 0 78 53q8 11 12 11t4 -4
q0 -11 -22 -35q-44 -47 -105 -47q-31 0 -50.5 15t-19.5 39q0 15 7 35q-63 -93 -146 -93q-52 0 -85 33.5t-33 85.5q0 57 38 125t101 124q86 76 158 76q75 0 84 -72l25 53q8 16 14 16q2 0 12 -2t14 -2q22 0 34 6q4 3 7 3q6 0 6 -7zM375 341q0 31 -18.5 50t-47.5 19
q-50 0 -96 -59q-53 -67 -85 -141.5t-32 -130.5q0 -68 56 -68q32 0 69.5 35t62.5 88l78 168q13 28 13 39z" />
    <glyph glyph-name="atilde" unicode="&#xe3;" horiz-adv-x="487" 
d="M522 606q-1 -4 -3 -6q-16 -32 -42 -56q-32 -29 -62 -29q-19 0 -32 6t-57 36q-35 24 -56 24q-10 0 -19 -10t-9 -22q0 -8 5 -14.5t5 -9.5q0 -6 -8 -6q-6 0 -11.5 9.5t-5.5 20.5q0 26 30.5 48.5t65.5 22.5q34 0 89 -39q31 -22 47 -22q18 0 39 36q9 16 17 16q7 0 7 -5z
M501 426q0 -3 -8 -21l-132 -300q-19 -43 -19 -66q0 -26 26 -26q39 0 78 53q8 11 12 11t4 -4q0 -11 -22 -35q-44 -47 -105 -47q-31 0 -50.5 15t-19.5 39q0 15 7 35q-63 -93 -146 -93q-52 0 -85 33.5t-33 85.5q0 57 38 125t101 124q86 76 158 76q75 0 84 -72l25 53q8 16 14 16
q2 0 12 -2t14 -2q22 0 34 6q4 3 7 3q6 0 6 -7zM375 341q0 31 -18.5 50t-47.5 19q-50 0 -96 -59q-53 -67 -85 -141.5t-32 -130.5q0 -68 56 -68q32 0 69.5 35t62.5 88l78 168q13 28 13 39z" />
    <glyph glyph-name="aring" unicode="&#xe5;" horiz-adv-x="487" 
d="M436 592q0 -34 -23.5 -58t-58.5 -24q-37 0 -60 23t-23 60q0 36 23.5 59.5t60.5 23.5q34 0 57.5 -24.5t23.5 -59.5zM501 426q0 -3 -8 -21l-132 -300q-19 -43 -19 -66q0 -26 26 -26q39 0 78 53q8 11 12 11t4 -4q0 -11 -22 -35q-44 -47 -105 -47q-31 0 -50.5 15t-19.5 39
q0 15 7 35q-63 -93 -146 -93q-52 0 -85 33.5t-33 85.5q0 57 38 125t101 124q86 76 158 76q75 0 84 -72l25 53q8 16 14 16q2 0 12 -2t14 -2q22 0 34 6q4 3 7 3q6 0 6 -7zM414 594q0 26 -18 45t-42 19t-43 -20t-19 -46t18.5 -44.5t43.5 -18.5t42.5 19t17.5 46zM375 341
q0 31 -18.5 50t-47.5 19q-50 0 -96 -59q-53 -67 -85 -141.5t-32 -130.5q0 -68 56 -68q32 0 69.5 35t62.5 88l78 168q13 28 13 39z" />
    <glyph glyph-name="ccedilla" unicode="&#xe7;" horiz-adv-x="356" 
d="M401 356q0 -49 -41 -49q-14 0 -25 10.5t-11 23.5q0 24 27 24l8 -1q7 -3 12 -4q8 0 8 11q0 16 -19.5 28.5t-43.5 12.5q-74 0 -143 -110q-71 -113 -71 -211q0 -84 76 -84q57 0 115 69q10 12 16 12q5 0 5 -6q0 -18 -45 -55t-105 -40l-8 -22q34 -2 47 -9q21 -12 21 -42
q0 -41 -35 -70.5t-84 -29.5q-25 0 -45 9t-20 20q0 6 5 6q3 0 7 -3q21 -16 39 -16q35 0 59.5 27.5t24.5 67.5q0 30 -33 30h-4l11 32q-34 3 -58 14q-75 35 -75 123q0 106 112 215q94 91 189 91q37 0 60.5 -20.5t23.5 -53.5z" />
    <glyph glyph-name="eacute" unicode="&#xe9;" horiz-adv-x="380" 
d="M496 672q0 -5 -20 -20l-143 -106q-55 -41 -61 -41q-3 0 -3 2t2 5l6 6l127 159h75q17 2 17 -5zM415 362q0 -54 -58 -89.5t-147 -35.5q-32 0 -71 5q-37 -77 -37 -143q0 -89 79 -89q61 0 119 64q13 14 17 14q5 0 5 -5q0 -23 -47 -57q-54 -39 -112 -39q-65 0 -107 38t-42 96
q0 112 122 217q107 92 191 92q88 0 88 -68zM344 379q0 31 -31 31q-32 0 -63 -24q-56 -44 -103 -131q12 -1 27 -1q56 0 109 34q61 38 61 91z" />
    <glyph glyph-name="egrave" unicode="&#xe8;" horiz-adv-x="380" 
d="M338 511q0 -8 -6 -8q-4 0 -11 12l-38 65q-25 43 -58 95h87l23 -148q2 -7 3 -16zM415 362q0 -54 -58 -89.5t-147 -35.5q-32 0 -71 5q-37 -77 -37 -143q0 -89 79 -89q61 0 119 64q13 14 17 14q5 0 5 -5q0 -23 -47 -57q-54 -39 -112 -39q-65 0 -107 38t-42 96q0 112 122 217
q107 92 191 92q88 0 88 -68zM344 379q0 31 -31 31q-32 0 -63 -24q-56 -44 -103 -131q12 -1 27 -1q56 0 109 34q61 38 61 91z" />
    <glyph glyph-name="ecircumflex" unicode="&#xea;" horiz-adv-x="380" 
d="M422 706q0 -3 -4 -22l-34 -163q-2 -15 -12 -15q-35 0 -35 12q0 2 2 11l13 61q2 8 6 21q3 6 3 11q0 6 -4 6q-2 -1 -5 -5q-7 -10 -68 -63q-40 -35 -49 -35q-11 0 -11 6q0 5 15 15q33 21 82 68.5t73 81.5q13 19 19 19q9 0 9 -9zM415 362q0 -54 -58 -89.5t-147 -35.5
q-32 0 -71 5q-37 -77 -37 -143q0 -89 79 -89q61 0 119 64q13 14 17 14q5 0 5 -5q0 -23 -47 -57q-54 -39 -112 -39q-65 0 -107 38t-42 96q0 112 122 217q107 92 191 92q88 0 88 -68zM344 379q0 31 -31 31q-32 0 -63 -24q-56 -44 -103 -131q12 -1 27 -1q56 0 109 34
q61 38 61 91z" />
    <glyph glyph-name="edieresis" unicode="&#xeb;" horiz-adv-x="380" 
d="M439 567q0 -22 -16 -37.5t-38 -15.5q-43 0 -43 40q0 24 16 40.5t40 16.5q41 0 41 -44zM270 564q0 -22 -16 -37t-39 -15q-42 0 -42 41q0 24 16.5 40t41.5 16q39 0 39 -45zM415 362q0 -54 -58 -89.5t-147 -35.5q-32 0 -71 5q-37 -77 -37 -143q0 -89 79 -89q61 0 119 64
q13 14 17 14q5 0 5 -5q0 -23 -47 -57q-54 -39 -112 -39q-65 0 -107 38t-42 96q0 112 122 217q107 92 191 92q88 0 88 -68zM344 379q0 31 -31 31q-32 0 -63 -24q-56 -44 -103 -131q12 -1 27 -1q56 0 109 34q61 38 61 91z" />
    <glyph glyph-name="iacute" unicode="&#xed;" horiz-adv-x="240" 
d="M408 672q0 -5 -20 -20l-143 -106q-55 -41 -61 -41q-3 0 -3 2t2 5l6 6l127 159h75q17 2 17 -5zM256 424q0 -3 -5 -12q-7 -12 -23 -49l-115 -263q-23 -53 -23 -66q0 -27 28 -27q19 0 43.5 13.5t37.5 32.5q9 12 14 12q6 0 6 -6q0 -12 -28 -36q-42 -36 -95 -36
q-35 0 -57.5 18t-22.5 46q0 25 25 81l104 232q5 17 12 26q3 4 3 7q0 9 -44 12q-8 2 -8 7q0 9 8 9q1 0 15 -2t45 -2q42 0 59 7q10 4 14 4q7 0 7 -8z" />
    <glyph glyph-name="igrave" unicode="&#xec;" horiz-adv-x="240" 
d="M249 511q0 -8 -6 -8q-4 0 -11 12l-38 65q-25 43 -58 95h87l23 -148q2 -7 3 -16zM256 424q0 -3 -5 -12q-7 -12 -23 -49l-115 -263q-23 -53 -23 -66q0 -27 28 -27q19 0 43.5 13.5t37.5 32.5q9 12 14 12q6 0 6 -6q0 -12 -28 -36q-42 -36 -95 -36q-35 0 -57.5 18t-22.5 46
q0 25 25 81l104 232q5 17 12 26q3 4 3 7q0 9 -44 12q-8 2 -8 7q0 9 8 9q1 0 15 -2t45 -2q42 0 59 7q10 4 14 4q7 0 7 -8z" />
    <glyph glyph-name="icircumflex" unicode="&#xee;" horiz-adv-x="240" 
d="M333 706q0 -3 -4 -22l-34 -163q-2 -15 -12 -15q-35 0 -35 12q0 2 2 11l13 61q2 8 6 21q3 6 3 11q0 6 -4 6q-2 -1 -5 -5q-7 -10 -68 -63q-40 -35 -49 -35q-11 0 -11 6q0 5 15 15q33 21 82 68.5t73 81.5q13 19 19 19q9 0 9 -9zM256 424q0 -3 -5 -12q-7 -12 -23 -49
l-115 -263q-23 -53 -23 -66q0 -27 28 -27q19 0 43.5 13.5t37.5 32.5q9 12 14 12q6 0 6 -6q0 -12 -28 -36q-42 -36 -95 -36q-35 0 -57.5 18t-22.5 46q0 25 25 81l104 232q5 17 12 26q3 4 3 7q0 9 -44 12q-8 2 -8 7q0 9 8 9q1 0 15 -2t45 -2q42 0 59 7q10 4 14 4q7 0 7 -8z
" />
    <glyph glyph-name="idieresis" unicode="&#xef;" horiz-adv-x="240" 
d="M340 568q0 -22 -15.5 -38t-38.5 -16q-43 0 -43 40q0 24 16 40.5t40 16.5q41 0 41 -43zM204 564q0 -22 -16 -37t-39 -15q-42 0 -42 41q0 24 16.5 40t41.5 16q39 0 39 -45zM256 424q0 -3 -5 -12q-7 -12 -23 -49l-115 -263q-23 -53 -23 -66q0 -27 28 -27q19 0 43.5 13.5
t37.5 32.5q9 12 14 12q6 0 6 -6q0 -12 -28 -36q-42 -36 -95 -36q-35 0 -57.5 18t-22.5 46q0 25 25 81l104 232q5 17 12 26q3 4 3 7q0 9 -44 12q-8 2 -8 7q0 9 8 9q1 0 15 -2t45 -2q42 0 59 7q10 4 14 4q7 0 7 -8z" />
    <glyph glyph-name="ntilde" unicode="&#xf1;" horiz-adv-x="492" 
d="M525 606q0 -3 -3 -6q-16 -32 -42 -56q-32 -29 -62 -29q-19 0 -32.5 6.5t-56.5 35.5q-35 24 -56 24q-10 0 -19 -10t-9 -22q0 -6 6 -16q5 -5 5 -7q0 -7 -8 -7q-7 0 -12.5 9.5t-5.5 20.5q0 26 31 48.5t65 22.5t89 -39q31 -22 47 -22q19 0 40 36q9 16 16 16t7 -5zM464 351
q0 -24 -26 -83l-81 -183q-14 -32 -14 -43q0 -21 23 -21q28 0 82 46q5 3 8 3q6 0 6 -5q0 -12 -33 -35q-45 -31 -96 -31q-31 0 -51 13.5t-20 34.5q0 17 19 60l80 179q29 65 29 88q0 34 -35 34q-46 0 -108 -66q-47 -50 -86 -140l-82 -190q-5 -15 -13 -15q-2 0 -22 2q-3 1 -12 1
q-8 0 -27 -2q-3 -1 -7 -1q-7 0 -7 5q0 2 3 6l7 15l153 368q3 5 5 9q-1 7 -25 8q-30 1 -30 11q0 7 11 7q7 0 22 -2t23 -2q54 0 71 8q7 3 9 3q6 0 6 -6q0 -3 -1 -5l-37 -94q8 9 23 25q74 78 143 78q40 0 65 -22.5t25 -57.5z" />
    <glyph glyph-name="oacute" unicode="&#xf3;" horiz-adv-x="462" 
d="M518 672q0 -5 -20 -20l-143 -106q-55 -41 -61 -41q-3 0 -3 2t2 5l6 6l127 159h75q17 2 17 -5zM442 269q0 -117 -107 -211q-84 -74 -175 -74q-62 0 -102 43t-40 111q0 58 33 119t88 104q86 67 166 67q61 0 99 -44t38 -115zM365 334q0 76 -68 76q-83 0 -144 -119
q-58 -114 -58 -214q0 -75 67 -75q84 0 140 108q63 122 63 224z" />
    <glyph glyph-name="ograve" unicode="&#xf2;" horiz-adv-x="462" 
d="M360 511q0 -8 -6 -8q-4 0 -11 12l-38 65q-25 43 -58 95h87l23 -148q2 -7 3 -16zM442 269q0 -117 -107 -211q-84 -74 -175 -74q-62 0 -102 43t-40 111q0 58 33 119t88 104q86 67 166 67q61 0 99 -44t38 -115zM365 334q0 76 -68 76q-83 0 -144 -119q-58 -114 -58 -214
q0 -75 67 -75q84 0 140 108q63 122 63 224z" />
    <glyph glyph-name="ocircumflex" unicode="&#xf4;" horiz-adv-x="462" 
d="M444 706q0 -3 -4 -22l-34 -163q-2 -15 -12 -15q-35 0 -35 12q0 2 2 11l13 61q2 8 6 21q3 6 3 11q0 6 -4 6q-2 -1 -5 -5q-7 -10 -68 -63q-40 -35 -49 -35q-11 0 -11 6q0 5 15 15q33 21 82 68.5t73 81.5q13 19 19 19q9 0 9 -9zM442 269q0 -117 -107 -211q-84 -74 -175 -74
q-62 0 -102 43t-40 111q0 58 33 119t88 104q86 67 166 67q61 0 99 -44t38 -115zM365 334q0 76 -68 76q-83 0 -144 -119q-58 -114 -58 -214q0 -75 67 -75q84 0 140 108q63 122 63 224z" />
    <glyph glyph-name="odieresis" unicode="&#xf6;" horiz-adv-x="462" 
d="M466 567q0 -22 -16 -37.5t-38 -15.5q-43 0 -43 40q0 24 16 40.5t40 16.5q41 0 41 -44zM297 564q0 -22 -16 -37t-39 -15q-42 0 -42 41q0 24 16.5 40t41.5 16q39 0 39 -45zM442 269q0 -117 -107 -211q-84 -74 -175 -74q-62 0 -102 43t-40 111q0 58 33 119t88 104
q86 67 166 67q61 0 99 -44t38 -115zM365 334q0 76 -68 76q-83 0 -144 -119q-58 -114 -58 -214q0 -75 67 -75q84 0 140 108q63 122 63 224z" />
    <glyph glyph-name="otilde" unicode="&#xf5;" horiz-adv-x="462" 
d="M510 606q0 -3 -3 -6q-16 -33 -43 -57q-31 -28 -62 -28q-19 0 -32.5 6t-56.5 36q-35 24 -56 24q-11 0 -19.5 -10t-8.5 -23q0 -7 5.5 -13.5t5.5 -8.5q0 -7 -8 -7q-7 0 -12.5 9.5t-5.5 20.5q0 26 30.5 48.5t65.5 22.5q23 0 38 -6.5t52 -32.5q31 -22 47 -22q14 0 26 15
q8 14 17 27q7 10 13 10q7 0 7 -5zM442 269q0 -117 -107 -211q-84 -74 -175 -74q-62 0 -102 43t-40 111q0 58 33 119t88 104q86 67 166 67q61 0 99 -44t38 -115zM365 334q0 76 -68 76q-83 0 -144 -119q-58 -114 -58 -214q0 -75 67 -75q84 0 140 108q63 122 63 224z" />
    <glyph glyph-name="uacute" unicode="&#xfa;" horiz-adv-x="488" 
d="M531 672q0 -5 -20 -20l-143 -106q-55 -41 -61 -41q-3 0 -3 2t2 5l6 6l127 159h75q17 2 17 -5zM498 418l-2 -5l-7 -16l-112 -261q-34 -79 -34 -98q0 -27 26 -27q37 0 82 52q11 13 15 13q6 0 6 -6q0 -24 -59 -60q-35 -21 -72 -21q-29 0 -51 16t-22 37q0 12 9 37l12 34
q-67 -77 -101.5 -100t-84.5 -23q-39 0 -64 15.5t-25 40.5q0 27 22 76l103 231q4 9 17 35q3 5 3 7q0 8 -24 8q-32 0 -32 11q0 7 7 7q8 0 23 -2t23 -2q52 0 77 9q6 2 8 2q5 0 5 -6q0 -8 -20 -50.5t-37 -87.5q-4 -11 -31 -73l-40 -92q-25 -57 -25 -81q0 -29 37 -29q39 0 101 64
q70 72 116 182l64 152q5 12 11 12q-1 0 21 -2h8q27 0 35 3q5 2 7 2q5 0 5 -4z" />
    <glyph glyph-name="ugrave" unicode="&#xf9;" horiz-adv-x="488" 
d="M373 511q0 -8 -6 -8q-4 0 -11 12l-38 65q-25 43 -58 95h87l23 -148q2 -7 3 -16zM498 418l-2 -5l-7 -16l-112 -261q-34 -79 -34 -98q0 -27 26 -27q37 0 82 52q11 13 15 13q6 0 6 -6q0 -24 -59 -60q-35 -21 -72 -21q-29 0 -51 16t-22 37q0 12 9 37l12 34
q-67 -77 -101.5 -100t-84.5 -23q-39 0 -64 15.5t-25 40.5q0 27 22 76l103 231q4 9 17 35q3 5 3 7q0 8 -24 8q-32 0 -32 11q0 7 7 7q8 0 23 -2t23 -2q52 0 77 9q6 2 8 2q5 0 5 -6q0 -8 -20 -50.5t-37 -87.5q-4 -11 -31 -73l-40 -92q-25 -57 -25 -81q0 -29 37 -29q39 0 101 64
q70 72 116 182l64 152q5 12 11 12q-1 0 21 -2h8q27 0 35 3q5 2 7 2q5 0 5 -4z" />
    <glyph glyph-name="ucircumflex" unicode="&#xfb;" horiz-adv-x="488" 
d="M457 706q0 -3 -4 -22l-34 -163q-2 -15 -12 -15q-35 0 -35 12q0 2 2 11l13 61q2 8 6 21q3 6 3 11q0 6 -4 6q-2 -1 -5 -5q-7 -10 -68 -63q-40 -35 -49 -35q-11 0 -11 6q0 5 15 15q33 21 82 68.5t73 81.5q13 19 19 19q9 0 9 -9zM498 418l-2 -5l-7 -16l-112 -261
q-34 -79 -34 -98q0 -27 26 -27q37 0 82 52q11 13 15 13q6 0 6 -6q0 -24 -59 -60q-35 -21 -72 -21q-29 0 -51 16t-22 37q0 12 9 37l12 34q-67 -77 -101.5 -100t-84.5 -23q-39 0 -64 15.5t-25 40.5q0 27 22 76l103 231q4 9 17 35q3 5 3 7q0 8 -24 8q-32 0 -32 11q0 7 7 7
q8 0 23 -2t23 -2q52 0 77 9q6 2 8 2q5 0 5 -6q0 -8 -20 -50.5t-37 -87.5q-4 -11 -31 -73l-40 -92q-25 -57 -25 -81q0 -29 37 -29q39 0 101 64q70 72 116 182l64 152q5 12 11 12q-1 0 21 -2h8q27 0 35 3q5 2 7 2q5 0 5 -4z" />
    <glyph glyph-name="udieresis" unicode="&#xfc;" horiz-adv-x="488" 
d="M480 567q0 -22 -16 -37.5t-38 -15.5q-43 0 -43 40q0 24 16 40.5t40 16.5q41 0 41 -44zM311 564q0 -22 -16 -37t-39 -15q-42 0 -42 41q0 24 16.5 40t41.5 16q39 0 39 -45zM498 418l-2 -5l-7 -16l-112 -261q-34 -79 -34 -98q0 -27 26 -27q37 0 82 52q11 13 15 13q6 0 6 -6
q0 -24 -59 -60q-35 -21 -72 -21q-29 0 -51 16t-22 37q0 12 9 37l12 34q-67 -77 -101.5 -100t-84.5 -23q-39 0 -64 15.5t-25 40.5q0 27 22 76l103 231q4 9 17 35q3 5 3 7q0 8 -24 8q-32 0 -32 11q0 7 7 7q8 0 23 -2t23 -2q52 0 77 9q6 2 8 2q5 0 5 -6q0 -8 -20 -50.5
t-37 -87.5q-4 -11 -31 -73l-40 -92q-25 -57 -25 -81q0 -29 37 -29q39 0 101 64q70 72 116 182l64 152q5 12 11 12q-1 0 21 -2h8q27 0 35 3q5 2 7 2q5 0 5 -4z" />
    <glyph glyph-name="dagger" unicode="&#x2020;" horiz-adv-x="478" 
d="M563 493q0 -22 -42 -22q-19 -26 -38 -26q-11 0 -35 13q-48 26 -103 27q-12 -33 -12 -67q0 -39 12 -72q-48 -69 -76 -128q-33 -65 -86 -203l-64 -166q-12 -2 -14 -2q-5 0 -14 3l62 175q62 175 74 319q43 38 61.5 65.5t34.5 75.5q-52 -1 -130 -36q-9 -4 -18 -4
q-14 0 -24 19q-27 2 -27 20q0 16 37 27q14 31 40 31q14 0 39 -14q34 -19 91 -23q12 33 12 68q0 12 -7 45q-2 9 -2 17q0 30 50 50q20 32 36 32q20 0 18 -20l-1 -13q17 -14 17 -26q0 -16 -22 -41q-54 -62 -77 -112q65 0 119 24q22 10 32 10q20 0 26 -26q31 -5 31 -20z" />
    <glyph glyph-name="degree" unicode="&#xb0;" horiz-adv-x="409" 
d="M456 607q0 -41 -32.5 -73t-74.5 -32t-72 29.5t-30 71.5q0 44 32 73.5t78 29.5q41 0 70 -29t29 -70zM422 611q0 24 -19 46q-15 18 -48 18q-31 0 -52 -21.5t-21 -52.5q0 -29 18 -48t46 -19q30 0 53 23t23 54z" />
    <glyph glyph-name="cent" unicode="&#xa2;" horiz-adv-x="415" 
d="M484 679q0 -6 -6 -17l-58 -105q52 -21 52 -72q0 -19 -12.5 -33t-29.5 -14q-14 0 -25 10t-11 24q0 25 24 25q6 0 18 -5q5 -2 6 -2q6 0 6 8q0 34 -36 47l-216 -387q21 -20 54 -20q67 0 120 69q11 14 16 14q6 0 6 -6q0 -15 -34 -46q-55 -50 -123 -50q-22 0 -56 7l-60 -106
q-12 -22 -24 -22q-9 0 -9 8q0 7 10 24l61 106q-71 39 -71 116q0 63 42 131.5t113 122.5t153 55l64 113q7 13 17 13q9 0 9 -8zM388 548q-61 -3 -125 -84q-39 -49 -64.5 -118t-25.5 -122q0 -25 7 -46z" />
    <glyph glyph-name="sterling" unicode="&#xa3;" horiz-adv-x="577" 
d="M634 587q0 -57 -51 -57q-19 0 -32.5 12t-13.5 29q0 29 33 42q23 9 23 18q0 17 -22 35q-26 21 -69 21q-72 0 -114 -73q-36 -62 -60 -209q-3 -19 -12 -68h34q22 0 63 1t47 1h15q19 0 19 -10q0 -19 -34 -19l-148 -2q-53 -151 -205 -244q-8 -5 -9 -8q0 -3 4 -3q5 0 8 2.5
t72 29.5q46 18 99 18q41 0 103 -25q54 -22 79 -22q33 0 59 39q17 26 24 42t13 16q8 0 8 -11q0 -26 -50.5 -93.5t-110.5 -67.5q-34 0 -98 26q-91 37 -147 37q-74 0 -144 -46q-14 -9 -22 -9q-11 0 -11 10q0 8 7.5 13t50.5 26t82 63.5t58 88.5q16 39 28 118q-17 1 -36 1
q-14 0 -20 -1l-49 -2q-26 0 -26 15q0 10 10.5 12t69.5 2h34q5 0 24 3q27 175 102 272t183 97q64 0 96 -32q36 -36 36 -88z" />
    <glyph glyph-name="section" unicode="&#xa7;" horiz-adv-x="497" 
d="M532 578q0 -25 -14.5 -41t-37.5 -16q-19 0 -33 11.5t-14 28.5q0 19 10 27q7 6 28 13q10 3 10 10q0 25 -32 45t-72 20q-50 0 -80 -29t-30 -77q0 -34 17 -59q10 -14 44 -45l52 -47q62 -56 77 -82q20 -35 20 -72q0 -64 -43 -108q-20 -21 -67 -46q14 -36 14 -67
q0 -76 -58.5 -131.5t-135.5 -55.5q-68 0 -117.5 46t-49.5 110q0 55 51 55q45 0 45 -44q0 -26 -28 -36q-22 -8 -22 -21q0 -14 15 -40q29 -51 99 -51q53 0 85 33.5t32 88.5q0 38 -17 67.5t-60 67.5l-40 35q-44 39 -59 64t-15 62q0 93 107 151q-23 42 -23 78q0 70 55.5 119.5
t132.5 49.5q63 0 108.5 -33.5t45.5 -80.5zM411 208q0 59 -93 141l-33 29q-40 35 -57 55q-58 -41 -58 -93q0 -44 71 -103l49 -41q42 -35 68 -67q53 30 53 79z" />
    <glyph glyph-name="bullet" unicode="&#x2022;" horiz-adv-x="689" 
d="M521 345q0 -52 -36 -88t-88 -36t-88 36t-36 88t36.5 88t89.5 36q50 0 86 -36.5t36 -87.5z" />
    <glyph glyph-name="paragraph" unicode="&#xb6;" horiz-adv-x="538" 
d="M685 680q0 -9 -15 -9h-25l-61 -1l-184 -527q-35 -100 -72 -153.5t-100 -95.5q-83 -56 -146 -56q-38 0 -66.5 18.5t-28.5 43.5q0 23 15.5 40t35.5 17q19 0 31.5 -12.5t12.5 -31.5q0 -10 -11 -22q-6 -7 -6 -14q0 -17 28 -17q44 0 80 47q73 94 129 256l53 152q-50 1 -73 4
q-40 5 -69 22q-68 40 -68 111q0 60 36.5 115t97.5 87q69 36 173 36h217q16 0 16 -10zM560 669h-52l-183 -507q-38 -105 -61 -152t-64 -101q-3 -3 -3 -5q0 -5 5 -5q6 0 35 22.5t45 39.5q50 54 94 181z" />
    <glyph glyph-name="germandbls" unicode="&#xdf;" horiz-adv-x="491" 
d="M520 585q0 -102 -75 -149q-39 -25 -86 -31q-12 -2 -12 -6t9 -6q45 -8 74 -48.5t29 -94.5q0 -101 -68.5 -181.5t-153.5 -80.5q-83 0 -83 69q0 25 13 42.5t33 17.5q37 0 37 -34q0 -24 -18 -30q-21 -7 -21 -22q0 -27 37 -27q50 0 81 43q26 36 44.5 103t18.5 123
q0 114 -91 123q-18 2 -18 13q0 10 15 9l23 -1q54 -2 92 31q53 46 53 157q0 87 -58 87q-47 0 -81 -50t-77 -183l-126 -393q-56 -173 -135 -259q-65 -70 -126 -70q-34 0 -56 17t-22 44q0 19 12 32t30 13q14 0 26 -10.5t12 -23.5q0 -6 -10 -24q-5 -9 -5 -12q0 -7 7 -13t15 -6
q34 0 64 36q36 44 96 231l109 341q60 188 129.5 266.5t145.5 78.5q55 0 86 -32t31 -90z" />
    <glyph glyph-name="registered" unicode="&#xae;" horiz-adv-x="786" 
d="M805 372q0 -156 -114 -270t-270 -114q-142 0 -238 96.5t-96 238.5q0 156 115 268.5t274 112.5q137 0 233 -97t96 -235zM768 372q0 128 -87.5 215t-217.5 87q-136 0 -237.5 -105.5t-101.5 -246.5q0 -128 86.5 -216t212.5 -88q140 0 242.5 105t102.5 249zM639 475
q0 -68 -90 -98q-27 -9 -76 -13l13 -3q35 -8 48.5 -27t13.5 -57v-18l-3 -52q-1 -17 -1 -28q0 -25 10 -25q5 0 5 14.5t22 14.5q15 0 15 -12q0 -13 -16 -22.5t-39 -9.5q-69 0 -69 68q0 10 2 32l4 45q1 11 1 27q0 27 -12.5 36t-54.5 11l-65 -170q-6 -16 -6 -18q0 -7 5.5 -8
t31.5 -2q13 0 13 -6q0 -9 -19 -9q2 0 -16.5 1t-57.5 1h-25q-9 0 -26 -1t-25 -1q-12 0 -12 8q0 6 18 7q27 1 34 6t17 32l120 311q9 23 9 28q0 9 -33 9q-11 0 -11 7q0 6 6 8q8 1 42 0l66 -2h41q55 0 87.5 -23t32.5 -61zM566 476q0 48 -30 63q-10 5 -43 5q-10 0 -19 -25
l-55 -145q44 1 70 9q77 22 77 93z" />
    <glyph glyph-name="copyright" unicode="&#xa9;" horiz-adv-x="786" 
d="M805 372q0 -156 -114 -270t-270 -114q-142 0 -238 96.5t-96 238.5q0 156 115 268.5t274 112.5q137 0 233 -97t96 -235zM768 372q0 128 -87.5 215t-217.5 87q-136 0 -237.5 -105.5t-101.5 -246.5q0 -128 86.5 -216t212.5 -88q140 0 242.5 105t102.5 249zM642 534
q0 -6 -11 -29q-8 -16 -23 -50l-9 -23q-4 -10 -12 -10q-12 0 -12 9q0 2 4 17q3 11 3 26q0 76 -68 76q-79 0 -134 -83q-60 -90 -60 -191q0 -105 78 -105q65 0 122 76q10 14 19 14t9 -8q0 -14 -39 -52q-63 -62 -145 -62q-58 0 -91.5 34t-33.5 92q0 114 86.5 208.5t190.5 94.5
q50 0 88 -35q6 -6 10 -6q3 0 7.5 6.5t12.5 6.5t8 -6z" />
    <glyph glyph-name="trademark" unicode="&#x2122;" horiz-adv-x="791" 
d="M935 682q0 -8 -12 -8h-8q-4 1 -10 1h-11q-8 0 -11.5 -6t-18.5 -42l-99 -239q-8 -19 -8 -22q0 -8 22 -8h10q9 0 9 -6q0 -8 -12 -8h-16l-117 -1q-10 0 -10 7q0 9 11 8l14 -1q14 -1 21 8q3 4 10 23q4 10 9 22l96 225q-11 -17 -26 -37l-165 -225q-19 -26 -28 -26
q-10 0 -10 11v6l1 15l18 269l-12 -34l-89 -223q-8 -20 -8 -25q0 -9 18 -9h5q5 1 10 1q8 0 8 -7q0 -8 -11 -8h-11q-8 1 -26 1h-30q-25 0 -33 -1h-8q-10 0 -10 7q0 8 19 8q31 0 36 4q2 3 14 32l100 247q10 25 10 28q0 6 -12 6q1 0 -4 0q-4 -1 -14 -1h-9q-11 0 -11 8t10 8h9
l25 -1h57q6 1 14 1q12 0 12 -16q0 -1 -1 -19l-11 -204l174 238h93q27 0 27 -7zM500 691q-10 -27 -29 -83q-5 -17 -13 -17q-12 0 -12 8q0 3 5 18q4 12 4 26q0 18 -10 24.5t-44 6.5q-11 0 -22 -1l-122 -283q-10 -23 -10 -24q0 -7 23 -8q15 -1 15 -7q0 -8 -13 -8q-9 0 -15 1
q-17 1 -57 1q-31 0 -40.5 -1t-19.5 -1t-10 6q0 8 30 9q13 0 18.5 6t17.5 35l118 275h-18q-69 0 -101 -59q-12 -22 -21 -22q-8 0 -8 7q0 1 2 7q7 18 27 52q10 19 15 31q235 -1 290 1z" />
    <glyph glyph-name="acute" unicode="&#xb4;" horiz-adv-x="517" 
d="M546 672q0 -5 -20 -20l-143 -106q-55 -41 -61 -41q-3 0 -3 2t2 5l6 6l127 159h75q17 2 17 -5z" />
    <glyph glyph-name="dieresis" unicode="&#xa8;" horiz-adv-x="517" 
d="M494 567q0 -22 -16 -37.5t-38 -15.5q-43 0 -43 40q0 24 16 40.5t40 16.5q41 0 41 -44zM325 564q0 -22 -16 -37t-39 -15q-42 0 -42 41q0 24 16.5 40t41.5 16q39 0 39 -45z" />
    <glyph glyph-name="AE" unicode="&#xc6;" horiz-adv-x="887" 
d="M999 687q0 -6 -5 -18q-11 -25 -42 -131q-8 -28 -16 -28q-5 0 -5 7q0 6 4 20q12 41 12 72q0 37 -27.5 51t-105.5 15l-69 1q-16 0 -21 -6.5t-21 -45.5l-100 -248q19 -2 40 -2q71 0 112 39q23 22 41 65q3 7 7 7q9 0 9 -5q0 -9 -11 -28q-33 -59 -89 -224q-9 -26 -15 -26
q-7 0 -7 7q0 2 7 20q13 34 13 68q0 32 -21 44.5t-73 12.5h-23l-129 -312q-3 -4 -4 -8q1 -9 31.5 -11.5t136.5 -2.5q43 0 97 21q44 17 69.5 47.5t46.5 92.5q10 28 20 28q6 0 6 -7q0 -10 -10 -33q-17 -39 -52 -140q-8 -22 -14 -26t-31 -4l-435 1q-67 0 -67 7q0 9 42 9h24
q20 0 26.5 7t23.5 46l70 163q-19 1 -42 1q-128 0 -171 -2q-8 -4 -16.5 -12.5t-25.5 -26.5l-107 -117q-31 -34 -31 -40q0 -17 48 -17h22q9 1 21 1t12 -8q0 -11 -18 -11h-15q-7 1 -29 1q-135 0 -152 -2q-8 -1 -19 -1q-15 0 -15 12q0 8 5 8l47 -3q13 -1 42 19q6 4 70 68
l484 504q46 48 46 61q0 12 -32 12h-32q-12 0 -12 8t21 8l100 -1l144 1l196 -1q14 0 14 -7zM613 634q-20 -16 -49 -49q-49 -57 -113 -124l-159 -166q-4 -5 -14 -15l-11 -9l-7 -4q-3 -3 -3 -4q0 -6 17 -6q-4 0 7 1t34 0l42 -1q42 -1 34 -1q32 0 63 1z" />
    <glyph glyph-name="Oslash" unicode="&#xd8;" horiz-adv-x="711" 
d="M739 463q0 -177 -144 -326.5t-315 -149.5q-55 0 -105 20l-76 -100q-15 -20 -22 -20q-15 0 -15 14q0 5 11 19l78 102q-83 60 -83 176q0 106 55.5 214t150.5 189q123 104 250 104q69 0 115 -29l65 86q10 13 15 13q16 0 16 -13q0 -2 -9 -15l-64 -89q77 -74 77 -195zM617 645
q-32 46 -92 46q-130 0 -251 -199q-109 -180 -109 -355q0 -40 16 -74zM644 528q0 41 -15 89l-434 -580q36 -35 95 -35q65 0 133.5 51t114.5 133t76 179.5t30 162.5z" />
    <glyph glyph-name="infinity" unicode="&#x221e;" horiz-adv-x="713" 
d="M659 300q0 -75 -34 -127q-40 -59 -111 -59q-93 0 -148 124q-65 -124 -157 -124q-71 0 -115 58q-41 53 -41 126q0 75 35 127q39 59 111 59q91 0 148 -124q63 124 157 124q71 0 115 -58q40 -53 40 -126zM635 303q0 54 -29 88.5t-81 34.5q-77 0 -149 -162q46 -86 142 -86
q53 0 85 36t32 89zM336 334q-47 86 -141 86q-53 0 -85 -36t-32 -89q0 -51 28 -87t78 -36q51 0 95 59q23 32 57 103z" />
    <glyph glyph-name="plusminus" unicode="&#xb1;" horiz-adv-x="524" 
d="M518 317h-189v-185h-36v185h-189v36h189v185h36v-185h189v-36zM518 12h-414v36h414v-36z" />
    <glyph glyph-name="lessequal" unicode="&#x2264;" horiz-adv-x="549" 
d="M503 127l-456 143v61l456 143v-64l-351 -110l351 -109v-64zM503 0h-457v62h457v-62z" />
    <glyph glyph-name="greaterequal" unicode="&#x2265;" horiz-adv-x="549" 
d="M503 270l-457 -143v64l351 109l-351 110v64l457 -143v-61zM503 0h-457v62h457v-62z" />
    <glyph glyph-name="yen" unicode="&#xa5;" horiz-adv-x="538" 
d="M736 685q0 -7 -17 -8q-50 -3 -69.5 -16t-72.5 -78l-153 -189q-9 -11 -51 -64h136q19 0 19 -8v-4q0 -11 -3.5 -13.5t-20.5 -2.5h-30l-121 1q-4 -7 -14 -33q-5 -11 -7 -19h140q23 0 26.5 -2t3.5 -15q0 -9 -17 -7l-31 -1q-8 -1 -25 -1q-18 0 -78 2l-30 1l-56 -160
q-10 -29 -10 -35q0 -20 73 -19q9 0 9 -5q0 -10 -19 -10q-11 0 -18 1q-78 3 -112 3q-19 0 -94 -3l-25 -1q-10 0 -10 6q0 10 28 11q51 1 67 11.5t30 51.5l52 148h-172q-7 0 -7 6q0 14 7.5 16.5t48.5 2.5h13q12 -1 23 -1h95l16 52h-150q-24 0 -24 7q0 14 3.5 17t18.5 3h154
l-32 320q-2 17 -10 22.5t-34 5.5h-14l-14 1q-11 1 -11 6q0 9 16 9q9 0 16 -1q40 -2 107 -2q94 0 106 1t20 1q14 0 14 -7q0 -6 -7 -7.5t-43 -2.5q-58 -2 -58 -36q0 -5 3 -33l28 -266l204 251q51 63 51 70q0 9 -11.5 11.5t-58.5 3.5q-9 0 -9 6q0 10 24 10q-1 0 6 0q8 -1 26 -1
l142 -1q13 0 13 -6z" />
    <glyph glyph-name="mu" unicode="&#xb5;" horiz-adv-x="495" 
d="M504 418q0 -1 -8 -21l-113 -261q-33 -76 -33 -98q0 -27 26 -27q39 0 81 52q11 13 15 13q6 0 6 -6q0 -25 -58 -60q-35 -21 -73 -21q-29 0 -50.5 16t-21.5 37q0 15 8 36q6 18 13 35q-66 -77 -101 -100t-84 -23q-42 0 -68 17q-11 -36 -15 -60l-21 -116q-16 -91 -69 -91
q-44 0 -44 39q0 22 33 94l236 515q3 4 3 7q0 8 -24 8q-32 0 -32 11q0 7 8 7q6 0 18 -2t18 -2q59 0 86 9q6 2 8 2q5 0 5 -5q0 -9 -20.5 -51.5t-36.5 -87.5q-7 -19 -31 -73l-41 -92q-25 -56 -25 -81q0 -28 37 -28q39 0 102 64q70 71 116 181l64 152q5 12 10 12q1 0 21 -2h9
q7 0 21 2.5t20 2.5q5 0 5 -4z" />
    <glyph glyph-name="product" unicode="&#x220f;" horiz-adv-x="823" 
d="M797 -216h-264v32h84v896h-407v-896h84v-32h-264v32h88v896h-88v32h767v-32h-88v-896h88v-32z" />
    <glyph glyph-name="pi" unicode="&#x3c0;" horiz-adv-x="549" 
d="M526 469q0 -51 -23 -70.5t-75 -20.5h-24q-4 -132 -4 -196v-86q6 -63 39 -63q39 0 51 43q7 24 7 75h25q0 -161 -106 -161q-66 0 -87 53q-16 40 -16 151q0 -6 4 184h-137q0 -227 -13 -294q-18 -94 -80 -94q-46 0 -61 48q-9 28 -9 86h24q1 -52 37 -52q45 0 62 75
q14 62 16 231h-22q-77 0 -87 -52h-23q4 74 46 101q34 22 113 22h254q66 0 66 22v1h23v-3z" />
    <glyph glyph-name="ordfeminine" unicode="&#xaa;" horiz-adv-x="338" 
d="M404 536q0 -7 -5 -15l-82 -177q-11 -24 -11 -38t13 -14q25 0 49 34q4 6 7 6q5 0 5 -5q0 -7 -15 -23q-27 -29 -67 -29q-46 0 -46 36q0 5 1 8q-47 -46 -85 -46q-32 0 -53.5 21t-21.5 52q0 61 63.5 128t121.5 67q39 0 55 -37l12 24q5 11 11 11q5 0 8 -1t9 -1q13 0 19 3l6 2
q6 0 6 -6zM321 487q0 15 -11 25.5t-27 10.5q-46 0 -98 -94q-31 -56 -31 -99q0 -37 31 -37q45 0 79 71l48 99q9 19 9 24z" />
    <glyph glyph-name="ordmasculine" unicode="&#xba;" horiz-adv-x="321" 
d="M368 442q0 -63 -56 -117t-121 -54q-41 0 -66.5 26.5t-25.5 67.5q0 62 58 118t123 56q39 0 63.5 -27t24.5 -70zM314 481q0 44 -40 44q-47 0 -84 -68.5t-37 -128.5q0 -43 39 -43q50 0 84 63q38 71 38 133z" />
    <glyph glyph-name="Omega" unicode="&#x2126;" horiz-adv-x="768" 
d="M718 408q0 -108 -72 -177q-65 -61 -176 -82v-59h123q50 0 67 17.5t21 68.5h23l-10 -176h-252v170q80 16 122 88q36 63 36 150q0 103 -56 170q-59 71 -160 71q-102 0 -161 -71q-55 -66 -55 -170q0 -88 36 -150q41 -72 122 -88v-170h-252l-10 176h23q3 -50 21 -68t67 -18
h123v59q-112 21 -176 82q-72 69 -72 177q0 131 105 204q91 63 229 63t229 -63q105 -73 105 -204z" />
    <glyph glyph-name="ae" unicode="&#xe6;" horiz-adv-x="654" 
d="M688 360q0 -53 -59 -88t-149 -35q-24 0 -68 5q-35 -79 -35 -140q0 -92 78 -92q65 0 119 68q9 11 16 11q5 0 5 -4q0 -13 -24 -38q-57 -60 -135 -60q-57 0 -101 34q-34 26 -43 86q-64 -120 -165 -120q-52 0 -85.5 33.5t-33.5 85.5q0 102 103 213.5t197 111.5q73 0 82 -73
l23 48q11 22 16 22q2 0 10 -2t15 -2q20 0 33 7q3 2 6 2q7 0 7 -7q0 -4 -3 -11l-10 -22q71 37 115 37q86 0 86 -70zM616 380q0 31 -31 31q-38 0 -84.5 -44.5t-78.5 -111.5h18q93 0 143 58q33 38 33 67zM374 346q0 15 -10 33q-17 30 -56 30q-68 0 -136 -112q-77 -126 -77 -217
q0 -70 54 -70q73 0 141 142l69 145q15 32 15 49z" />
    <glyph glyph-name="oslash" unicode="&#xf8;" horiz-adv-x="459" 
d="M443 274q0 -122 -108 -215q-86 -74 -176 -74q-26 0 -50 9l-54 -81q-10 -15 -19 -15q-15 0 -15 10q0 1 9 15l55 83q-68 46 -68 130q0 103 93 197.5t194 94.5q29 0 61 -16l44 65q9 13 17 13q12 0 12 -10q0 -6 -8 -18l-43 -63q56 -53 56 -125zM351 392q-22 22 -51 22
q-82 0 -147 -122q-59 -112 -59 -215q0 -22 8 -50zM367 337q0 10 -3 29l-245 -359q18 -9 39 -9q67 0 111 60q42 57 70 137.5t28 141.5z" />
    <glyph glyph-name="questiondown" unicode="&#xbf;" horiz-adv-x="385" 
d="M338 375q0 -25 -16 -41.5t-40 -16.5q-46 0 -46 47q0 55 55 55q47 0 47 -44zM269 243q0 -56 -36 -130q-34 -70 -127 -138q-80 -58 -103 -87t-23 -72q0 -42 25 -68t66 -26q32 0 60 21t28 46q0 7 -16.5 15t-16.5 27q0 17 12.5 29t31.5 12q18 0 31 -13.5t13 -31.5
q0 -46 -51 -85q-44 -34 -106 -34q-72 0 -115.5 38t-43.5 100q0 71 59 117q28 21 44 30q24 13 106 47q109 45 139 177q8 36 16 36q7 0 7 -10z" />
    <glyph glyph-name="exclamdown" unicode="&#xa1;" horiz-adv-x="267" 
d="M243 372q0 -25 -17.5 -42t-43.5 -17q-45 0 -45 47q0 26 16 42.5t42 16.5q48 0 48 -47zM163 260q0 -7 -4 -21q-36 -122 -88 -313l-29 -122q-13 -54 -29 -75t-44 -21q-46 0 -46 41q0 23 35 99l125 272q36 79 58 132q7 18 15 18q7 0 7 -10z" />
    <glyph glyph-name="logicalnot" unicode="&#xac;" horiz-adv-x="525" 
d="M470 0h-64v185h-351v36h415v-221z" />
    <glyph glyph-name="florin" unicode="&#x192;" horiz-adv-x="404" 
d="M565 627q0 -36 -36 -36q-32 0 -32 29q0 11 14 23q3 2 3 10q0 27 -45 27q-49 0 -81.5 -57.5t-95.5 -255.5h54q4 0 19 1h23h18q11 0 11 -10q0 -12 -21 -12h-9q-20 0 -41 1h-35h-25q-79 -232 -145 -370q-113 -238 -238 -238q-38 0 -63.5 16t-25.5 40q0 17 12.5 30t28.5 13
q33 0 33 -27q0 -7 -7 -15q-8 -13 -8 -18q0 -9 9.5 -16t21.5 -7q62 0 108 85q23 44 108 287l29 83q2 7 15 42t34 94q-6 1 -27 1q-23 0 -46 -1q-6 -1 -17 -1q-12 0 -12 9q0 11 11 13q6 2 69 2q10 0 30 -1q7 17 32 87q43 122 108 185q53 52 127 52q42 0 67 -17.5t25 -47.5z" />
    <glyph glyph-name="Delta" unicode="&#x2206;" horiz-adv-x="612" 
d="M595 0h-574l276 672h22zM471 32l-198 491l-201 -491h399z" />
    <glyph glyph-name="guillemotleft" unicode="&#xab;" horiz-adv-x="402" 
d="M422 359q0 -7 -21 -25l-100 -88q-22 -19 -22 -26t11 -30l44 -96q2 -5 2 -7q0 -5 -5 -5t-22 18l-79 82q-18 19 -17 23q3 29 4 32t25 20l73 49q88 59 101 59q6 0 6 -6zM251 358q0 -5 -22 -24l-102 -89q-19 -18 -19 -25q0 -3 10 -30l36 -74l4 -12l4 -10q2 -5 2 -6
q0 -6 -5 -6t-22 18l-79 82q-17 18 -16 23q4 40 4 33q0 2 24 19l74 49q17 11 38.5 23.5t54.5 32.5q5 3 8 3q6 0 6 -7z" />
    <glyph glyph-name="guillemotright" unicode="&#xbb;" horiz-adv-x="425" 
d="M402 248q0 -14 -5 -32q-2 -8 -23 -22l-76 -50q-20 -11 -46 -27q-50 -31 -54 -31q-6 0 -6 6q0 5 28 29l87 76q32 28 32 38q0 4 -14 27l-3 5l-21 35q-4 6 -32 55l-9 16q-3 5 -3 8q0 5 5 5q3 0 36 -32l78 -76l17 -15q9 -8 9 -15zM234 247q0 -17 -5 -33q-2 -7 -23 -21
l-75 -50q-20 -12 -46 -28q-49 -31 -54 -31q-6 0 -6 5q0 7 28 31l87 75q31 27 31 38q0 8 -16 33l-22 34q-43 66 -43 80q0 4 5 4q6 0 17 -11q6 -7 19 -20l94 -92q9 -8 9 -14z" />
    <glyph glyph-name="ellipsis" unicode="&#x2026;" horiz-adv-x="669" 
d="M553 49q0 -25 -15.5 -40.5t-40.5 -15.5q-49 0 -49 47q0 25 16.5 41.5t41.5 16.5q47 0 47 -49zM330 49q0 -25 -15.5 -40.5t-40.5 -15.5q-49 0 -49 47q0 25 16.5 41.5t41.5 16.5q47 0 47 -49zM107 49q0 -25 -15.5 -40.5t-40.5 -15.5q-49 0 -49 47q0 25 16.5 41.5t41.5 16.5
q47 0 47 -49z" />
    <glyph glyph-name="nonbreakingspace" unicode="&#xa0;" horiz-adv-x="186" 
 />
    <glyph glyph-name="Agrave" unicode="&#xc0;" horiz-adv-x="627" 
d="M573 743q0 -8 -6 -8q-4 0 -11 12l-38 65q-13 18 -24 42q-20 29 -34 53h86l23 -148q4 -15 4 -16zM593 9q0 -10 -34 -11q37 1 -39 2l-76 1l-132 -1q-7 -1 -15 -1q-18 0 -18 12q0 10 12 9q5 0 21 -1h11q27 0 48 9q14 6 20 56l16 128q1 7 2 15q0 7 -36 7h-89q-47 -1 -51 -1
h-16q-6 -6 -25 -30l-91 -128q-18 -25 -18 -36q0 -21 55 -21q6 0 18 1.5t18 1.5q14 0 14 -11q0 -10 -26 -10h-13q-12 0 -25 1h-13l-96 -2q-65 -1 -82 1.5t-17 11.5q0 8 9 8q10 0 15 -1q15 -3 25 -3q34 0 57 13q16 9 64 74l283 380q61 81 162 215q10 13 17 13q11 0 11 -16
q0 -21 -6 -53q-13 -69 -25 -181l-38 -356q-4 -37 -4 -51q0 -26 28 -33q12 -3 51 -3q28 0 28 -9zM451 535q0 10 -4 10q-3 -2 -6 -10q-8 -12 -14 -18q-11 -14 -31 -42l-104 -144q-24 -33 -47 -62q-5 -4 -6 -7q0 -8 14 -7l20 1l50 -1q75 -2 91 7l27 205q5 34 8 55q2 14 2 13z
" />
    <glyph glyph-name="Atilde" unicode="&#xc3;" horiz-adv-x="627" 
d="M740 838q0 -1 -3 -6.5t-10 -16.5q-42 -68 -94 -68q-19 0 -32.5 6t-56.5 36q-35 24 -56 24q-10 0 -19 -10t-9 -22q0 -10 5.5 -16t5.5 -8q0 -7 -8 -7q-7 0 -12.5 10t-5.5 21q0 26 30.5 48.5t65.5 22.5t89 -39q31 -22 47 -22q18 0 40 36q10 16 16 16q7 0 7 -5zM593 9
q0 -10 -34 -11q37 1 -39 2l-76 1l-132 -1q-7 -1 -16 -1q-17 0 -17 12q0 9 11 9t22 -1h11q27 0 48 9q14 6 21 56l20 135q1 3 1 8q0 7 -36 7h-89q-47 -1 -51 -1h-16q-6 -6 -26 -30l-93 -128q-19 -26 -19 -36q0 -21 55 -21q6 0 18 1.5t18 1.5q14 0 14 -10q0 -11 -27 -11l-55 1
l-91 -2q-65 -1 -82 1.5t-17 11.5q0 8 10 8q7 0 20 -2t20 -2q34 0 57 13q16 9 65 74l289 380q26 34 79 101l88 114q10 13 17 13q10 0 10 -14q0 -23 -7 -55q-13 -60 -28 -181l-44 -356q-6 -49 -6 -54q0 -29 36 -31l59 -3q12 -1 12 -8zM460 536q0 9 -4 9q-6 0 -11 -12.5
t-9 -15.5q-6 -7 -32 -42l-107 -144q-18 -24 -47 -62q-5 -4 -6 -7q0 -8 14 -7l20 1l50 -1q74 -1 90 7l31 205q3 20 9 55q2 10 2 14z" />
    <glyph glyph-name="Otilde" unicode="&#xd5;" horiz-adv-x="710" 
d="M725 838q0 -1 -3 -6l-10 -17q-40 -68 -95 -68q-18 0 -31.5 6t-56.5 36q-35 24 -56 24q-10 0 -19 -10t-9 -22q0 -8 5.5 -15t5.5 -9q0 -7 -8 -7q-7 0 -12.5 10t-5.5 21q0 26 30.5 48.5t65.5 22.5t89 -39q31 -22 47 -22q18 0 39 36q9 16 17 16q7 0 7 -5zM739 469
q0 -104 -52 -204.5t-142 -172.5q-133 -105 -266 -105q-100 0 -156 55.5t-56 155.5q0 101 52 207.5t140 183.5q132 116 270 116q101 0 157 -73q53 -69 53 -163zM644 533q0 57 -22 101q-28 57 -101 57q-125 0 -237 -181q-55 -89 -87.5 -189t-32.5 -181q0 -139 126 -139
q75 0 147 63q96 83 154 235q53 138 53 234z" />
    <glyph glyph-name="OE" unicode="&#x152;" horiz-adv-x="893" 
d="M1005 687q0 -3 -5 -17q-22 -61 -45 -148q-3 -13 -11 -13q-6 0 -6 8q0 6 6 26q9 30 9 62q0 57 -59 67q-31 5 -143 5q-15 0 -19.5 -5t-16.5 -34l-108 -264q29 -3 50 -3q51 0 92 29t53 73q3 12 10 12t7 -5q0 -7 -30 -71q-23 -50 -71 -183q-9 -24 -15 -24q-7 0 -7 7q0 4 5 16
q13 30 13 70q0 56 -67 57l-47 1l-133 -320q0 -13 24 -12l23 1l142 -2q29 0 76 20.5t69 43.5q18 19 46 93q12 31 19 31q9 0 9 -5q0 -6 -46 -126q-3 -12 -11 -31l-5 -15q-7 -24 -12.5 -28t-26.5 -4h-295q-70 0 -135 -7q-46 -5 -75 -5q-91 0 -147 58t-56 152q0 105 54.5 212.5
t146.5 186.5q128 109 249 109q28 0 84 -5.5t84 -5.5h45l57 1l209 -1q10 0 10 -7zM631 661q0 31 -112 31q-118 0 -235 -182q-55 -86 -87 -187t-32 -189q0 -132 129 -132q47 0 61 16q4 2 41 82l218 519q4 10 12 29q5 11 5 13z" />
    <glyph glyph-name="oe" unicode="&#x153;" horiz-adv-x="687" 
d="M721 361q0 -53 -60 -88.5t-148 -35.5q-28 0 -68 5q-34 -80 -34 -140q0 -92 77 -92q67 0 119 65q11 14 17 14q5 0 5 -5q0 -9 -14 -26q-60 -71 -146 -71q-91 0 -132 76q-92 -78 -180 -78q-61 0 -100 43.5t-39 110.5q0 54 32 114.5t84 104.5q81 69 172 69q42 0 76.5 -26
t51.5 -71q114 101 206 101q37 0 59 -19t22 -51zM649 382q0 29 -31 29q-39 0 -82.5 -41.5t-79.5 -113.5q22 -2 26 -2q79 0 127 50q40 41 40 78zM364 334q0 77 -69 77q-59 0 -106 -59q-40 -50 -67 -127.5t-27 -140.5q0 -81 67 -81q93 0 153 136q49 111 49 195z" />
    <glyph glyph-name="endash" unicode="&#x2013;" horiz-adv-x="485" 
d="M474 262l-8 -48h-426l7 48h427z" />
    <glyph glyph-name="emdash" unicode="&#x2014;" horiz-adv-x="619" 
d="M631 262l-8 -48h-609l8 48h609z" />
    <glyph glyph-name="quotedblleft" unicode="&#x201c;" horiz-adv-x="345" 
d="M450 713q0 -7 -19 -19q-49 -32 -67 -72q-9 -20 -9 -36q0 -25 12 -25q6 0 17 18q8 11 26 11q36 0 36 -39q0 -22 -17 -38t-41 -16q-28 0 -46 19.5t-18 49.5q0 65 67 123q9 8 29 18.5t25 10.5t5 -5zM296 713q0 -7 -19 -19q-49 -32 -67 -72q-9 -20 -9 -37q0 -24 12 -24
q6 0 17 18q8 11 25 11q37 0 37 -39q0 -23 -16.5 -38.5t-41.5 -15.5q-28 0 -46 19.5t-18 49.5q0 64 67 122q9 8 29 19t25 11t5 -5z" />
    <glyph glyph-name="quotedblright" unicode="&#x201d;" horiz-adv-x="352" 
d="M473 636q0 -58 -65 -115q-39 -34 -57 -34q-4 0 -4 4q0 6 17 17q42 28 61 62q16 29 16 51q0 23 -13 23q-5 0 -16 -18q-8 -12 -26 -12q-14 0 -24.5 12t-10.5 29q0 23 17.5 38t42.5 15q26 0 44 -20.5t18 -51.5zM325 636q0 -59 -64 -115q-39 -34 -58 -34q-4 0 -4 4q0 6 17 17
q42 28 61 62q16 28 16 51t-13 23q-5 0 -16 -18q-8 -12 -26 -12q-14 0 -24.5 12t-10.5 29q0 23 17.5 38t42.5 15q26 0 44 -20.5t18 -51.5z" />
    <glyph glyph-name="quoteleft" unicode="&#x2018;" horiz-adv-x="191" 
d="M295 710q0 -6 -19 -18q-49 -32 -67 -72q-9 -20 -9 -37q0 -24 12 -24q5 0 17 17q7 11 25 11q37 0 37 -38q0 -23 -16.5 -38.5t-41.5 -15.5q-28 0 -46 19.5t-18 49.5q0 64 67 122q9 8 29 18.5t25 10.5t5 -5z" />
    <glyph glyph-name="quoteright" unicode="&#x2019;" horiz-adv-x="204" 
d="M325 636q0 -59 -64 -115q-39 -34 -58 -34q-4 0 -4 4q0 6 17 17q42 28 61 62q16 28 16 51t-13 23q-5 0 -16 -18q-8 -12 -26 -12q-14 0 -24.5 12t-10.5 29q0 23 17.5 38t42.5 15q26 0 44 -20.5t18 -51.5z" />
    <glyph glyph-name="divide" unicode="&#xf7;" horiz-adv-x="524" 
d="M359 458q0 -20 -14 -34t-34 -14q-21 0 -35 14t-14 35q0 20 14 34t35 14q20 0 34 -14t14 -35zM518 317h-414v36h414v-36zM359 214q0 -20 -14 -34t-34 -14q-21 0 -35 14t-14 35q0 20 14.5 34t34.5 14t34 -14.5t14 -34.5z" />
    <glyph glyph-name="lozenge" unicode="&#x25ca;" horiz-adv-x="494" 
d="M491 289l-244 -522l-244 522l244 518zM435 289l-188 399l-188 -399l188 -403z" />
    <glyph glyph-name="ydieresis" unicode="&#xff;" horiz-adv-x="484" 
d="M478 567q0 -22 -16 -37.5t-38 -15.5q-43 0 -43 40q0 24 16 40.5t40 16.5q41 0 41 -44zM309 564q0 -22 -16 -37t-39 -15q-42 0 -42 41q0 24 16.5 40t41.5 16q39 0 39 -45zM544 398q0 -35 -34 -35q-16 0 -23 19q-2 4 -5 4q-10 0 -43 -54l-103 -168q-6 -11 -141 -216
q-70 -107 -145 -168q-44 -36 -87 -36q-45 0 -45 33q0 17 12 28t30 11q13 0 16.5 -4t4.5 -24q1 -15 14 -15q18 0 55.5 32t70.5 75q50 65 50 113q0 14 -1 25v24l-2 288q0 69 -30 69q-36 0 -69 -77q-12 -28 -20 -28t-8 9q0 20 30 65q45 67 106 67q45 0 57 -30q9 -23 9 -77v-27
l-3 -178q0 -37 2 -74l16 24q10 18 32 54l32 49l86 142q49 80 63.5 97t37.5 17q35 0 35 -34z" />
    <glyph glyph-name="Ydieresis" unicode="&#x178;" horiz-adv-x="543" 
d="M605 800q0 -22 -15.5 -38t-37.5 -16q-44 0 -44 41q0 23 16.5 39.5t39.5 16.5q41 0 41 -43zM430 796q0 -22 -16 -37t-39 -15q-42 0 -42 41q0 24 16.5 40t41.5 16q17 0 28 -13t11 -32zM739 684q0 -5 -27 -8q-44 -4 -60 -15t-63 -67l-195 -233q-36 -43 -43 -54
q-13 -20 -29 -61l-65 -169q-15 -39 -15 -41q0 -19 35 -21l22 -1l15 -1q10 1 10 -5q0 -9 -21 -9q-12 0 -69 2t-63 2q-35 0 -97 -4q-16 -1 -26 -1q-8 0 -8 6q0 7 7 8.5t51 4.5q31 2 42.5 12.5t26.5 49.5l69 180q16 42 16 60q0 9 -3 48l-23 284q-2 19 -19 24q-7 2 -34 2t-27 8
t14 8q9 0 15 -1l118 -2q79 -1 105 1q11 1 18 1q15 0 15 -7q0 -8 -29 -9q-49 -1 -65 -9t-16 -30q0 -15 2 -38l22 -258l215 256q47 56 47 64q0 14 -27 14q-51 0 -51 8q0 9 23 9h63h40q29 -1 49 -1h22q13 0 13 -7z" />
    <glyph glyph-name="fraction" unicode="&#x2044;" horiz-adv-x="106" 
d="M414 685q0 -1 -58 -70l-514 -608q-14 -17 -20 -17q-5 0 -14.5 6.5t-9.5 9.5q0 1 10 14l568 667q11 13 15 13q5 0 14 -6t9 -9z" />
    <glyph glyph-name="guilsinglleft" unicode="&#x2039;" horiz-adv-x="231" 
d="M251 358q0 -5 -22 -24l-102 -89q-19 -18 -19 -25q0 -3 10 -30l36 -74l4 -12l4 -10q2 -5 2 -6q0 -6 -5 -6t-22 18l-79 82q-17 18 -16 23q4 40 4 33q0 2 24 19l74 49q17 11 38.5 23.5t54.5 32.5q5 3 8 3q6 0 6 -7z" />
    <glyph glyph-name="guilsinglright" unicode="&#x203a;" horiz-adv-x="258" 
d="M234 247q0 -17 -5 -33q-2 -7 -23 -21l-75 -50q-20 -12 -46 -28q-49 -31 -54 -31q-6 0 -6 5q0 7 28 31l87 75q31 27 31 38q0 8 -16 33l-22 34q-43 66 -43 80q0 4 5 4q6 0 17 -11q6 -7 19 -20l94 -92q9 -8 9 -14z" />
    <glyph glyph-name="fi" unicode="&#xfb01;" horiz-adv-x="491" 
d="M544 632q0 -39 -40 -39q-36 0 -36 33q0 13 11 20.5t11 14.5q0 13 -20 23t-46 10q-44 0 -73 -32q-31 -35 -74 -152l-30 -82l210 -2q12 0 28 3q5 1 11 1q8 0 8 -6q0 -5 -6 -13l-9 -17l-4 -9q-8 -21 -25 -63l-93 -212q-28 -64 -28 -77q0 -10 9 -18t21 -8q38 0 85 54q2 4 6 4
q5 0 5 -6q0 -11 -30 -38q-37 -34 -89 -34q-35 0 -57 17.5t-22 45.5q0 27 29 93l94 213q17 39 17 41q0 10 -17 10l-127 2q-10 0 -20 -1l-81 -225q-97 -268 -188 -372q-64 -73 -141 -73q-84 0 -84 56q0 16 11 26.5t28 10.5q32 0 32 -26q0 -6 -9 -19q-7 -7 -7 -14q0 -22 29 -22
q48 0 83 42q40 49 87 182l151 433l-25 -1h-32l-25 -1q-3 -1 -9 -1q-12 0 -12 10q0 16 38 16h14h19q11 -1 14 -1h25q3 6 9 19l28 69q11 27 40 69.5t49 62.5q61 60 137 60q50 0 85 -22.5t35 -54.5z" />
    <glyph glyph-name="fl" unicode="&#xfb02;" horiz-adv-x="494" 
d="M617 700q0 -4 -6 -18l-225 -543q-36 -87 -36 -105q0 -11 10 -19.5t23 -8.5q38 0 71 39q19 22 23 22q7 0 7 -6q0 -15 -39 -45t-91 -30q-37 0 -59 16.5t-22 42.5q0 21 4 34t28 69l198 464q-32 8 -32 28q0 12 13 25q5 5 5 9q0 18 -57 18q-52 0 -87 -47q-38 -50 -71 -145
l-25 -71h95q10 1 21 1q5 0 7.5 -2t2.5 -9q0 -11 -16 -11l-102 2q-7 0 -14 -1l-12 -36l-72 -197l-72 -177q-60 -147 -155 -226q-41 -34 -95 -34q-88 0 -88 55q0 16 11.5 27.5t27.5 11.5q32 0 32 -26q0 -8 -7.5 -17.5t-7.5 -15.5q0 -22 30 -22q50 0 86 47t84 183l150 425
q-8 1 -18 1q-47 0 -59 -2q-6 -1 -15 -1q-12 0 -12 8q0 9 10 14q6 3 50 3h51q48 106 68.5 142.5t50.5 68.5q63 67 150 67q25 0 80 -12q14 -3 21 -3q8 0 61 13q8 2 13 2q11 0 11 -8z" />
    <glyph glyph-name="daggerdbl" unicode="&#x2021;" horiz-adv-x="494" 
d="M569 496q0 -17 -37 -24q-19 -26 -40 -26q-12 0 -35 14q-41 26 -96 27q-15 -46 -15 -62q0 -21 16 -46q-88 -91 -88 -162q0 -23 9 -51q-42 -27 -80 -107q60 1 131 34q11 5 21 5q16 0 29 -30q24 -5 24 -17q0 -21 -35 -22q-24 -29 -45 -29q-15 0 -47 18.5t-84 19.5
q-9 -35 -9 -62q0 -10 2 -38q2 -8 2 -21q0 -33 -40 -46q-17 -35 -36 -35q-17 0 -17 22q0 8 1 14q-17 14 -17 27q0 17 24 43q42 45 69 97q-79 -4 -138 -36q-7 -4 -14 -4q-15 0 -25 24q-25 6 -25 22q0 22 45 31q18 27 38 27q11 0 39 -20q32 -23 87 -24q10 36 10 62q0 20 -9 43
q46 49 58 70q26 43 26 101q0 20 -7 48q55 29 78 105q-58 -1 -114 -29q-24 -12 -36 -12q-18 0 -22 25q-27 7 -27 22q0 20 41 27q17 28 36 28q12 0 29 -12q27 -20 45.5 -25t55.5 -4q11 37 11 79q0 8 -1.5 23t-1.5 23q0 22 38 45q17 33 38 33q15 0 15 -20q0 -10 -1 -15
q18 -10 18 -24t-8 -25.5t-44 -48.5q-17 -18 -42 -69q73 0 133 28q7 4 17 4q19 0 31 -26q19 -6 19 -19z" />
    <glyph glyph-name="bulletoperator" unicode="&#x2219;" horiz-adv-x="216" 
d="M172 231q0 -26 -16.5 -42t-42.5 -16q-51 0 -51 49q0 26 17.5 43.5t43.5 17.5q49 0 49 -52z" />
    <glyph glyph-name="quotesinglbase" unicode="&#x201a;" horiz-adv-x="210" 
d="M109 26q0 -57 -65 -115q-38 -34 -57 -34q-3 0 -4 3q0 7 17 18q41 28 61 62q16 28 16 50q0 23 -13 23q-6 0 -16 -17q-7 -12 -26 -12q-14 0 -24.5 12t-10.5 29q0 23 17.5 38t42.5 15q26 0 44 -20.5t18 -51.5z" />
    <glyph glyph-name="quotedblbase" unicode="&#x201e;" horiz-adv-x="358" 
d="M257 26q0 -56 -65 -115q-38 -34 -57 -34q-4 0 -4 4q0 6 17 17q41 27 61 62q16 29 16 50q0 23 -13 23q-5 0 -16 -17q-8 -12 -26 -12q-14 0 -24.5 12t-10.5 29q0 23 17.5 38t42.5 15q26 0 44 -20.5t18 -51.5zM109 26q0 -57 -65 -115q-38 -34 -57 -34q-3 0 -4 3q0 7 17 18
q41 28 61 62q16 28 16 50q0 23 -13 23q-6 0 -16 -17q-7 -12 -26 -12q-14 0 -24.5 12t-10.5 29q0 23 17.5 38t42.5 15q26 0 44 -20.5t18 -51.5z" />
    <glyph glyph-name="perthousand" unicode="&#x2030;" horiz-adv-x="1114" 
d="M1082 222q0 -97 -57 -172q-50 -66 -130 -66q-52 0 -84 39t-32 101q0 94 56 163.5t132 69.5q50 0 82.5 -38t32.5 -97zM766 697q0 -4 -67 -79l-533 -599q-8 -9 -14 -18q-10 -11 -16 -11t-16.5 6.5t-10.5 10.5q0 2 14 18l580 650q-73 -22 -141 -22q-82 0 -167 30
q45 -39 45 -116q0 -95 -55 -163.5t-132 -68.5q-51 0 -83 40t-32 104q0 54 24.5 106t68 88t99.5 36q16 0 40 -6q123 -31 197 -31q88 0 156 26q23 9 30 9q13 0 13 -10zM732 222q0 -98 -57 -172q-51 -66 -130 -66q-52 0 -84 39t-32 101q0 94 56 163.5t132 69.5q50 0 82.5 -38
t32.5 -97zM1013 276q0 68 -45 68t-85 -94q-38 -90 -38 -175q0 -78 46 -78t84 87t38 192zM372 624q0 71 -42 71q-45 0 -84 -84q-41 -89 -41 -185q0 -77 45 -77q51 0 90 101q32 83 32 174zM663 276q0 68 -45 68t-85 -94q-38 -90 -38 -174q0 -79 46 -79t84 86.5t38 192.5z" />
    <glyph glyph-name="Acircumflex" unicode="&#xc2;" horiz-adv-x="627" 
d="M675 937q0 -3 -4 -22l-34 -162q-2 -15 -12 -15q-35 0 -35 12q0 1 2 10l13 61q2 11 6 22q3 6 3 11q0 6 -4 6q-2 -1 -5 -5q-10 -13 -68 -63q-41 -35 -49 -35q-11 0 -11 7q0 2 5 6q101 72 165 157q15 20 19 20q9 0 9 -10zM593 9q0 -10 -34 -11q37 1 -39 2l-76 1l-132 -1
q-7 -1 -16 -1q-17 0 -17 12q0 9 11 9t22 -1h11q27 0 48 9q14 6 21 56l20 135q1 3 1 8q0 7 -36 7h-89q-47 -1 -51 -1h-16q-6 -6 -26 -30l-93 -128q-19 -26 -19 -36q0 -21 55 -21q6 0 18 1.5t18 1.5q14 0 14 -10q0 -11 -27 -11l-55 1l-91 -2q-65 -1 -82 1.5t-17 11.5q0 8 10 8
q7 0 20 -2t20 -2q34 0 57 13q16 9 65 74l289 380q26 34 79 101l88 114q10 13 17 13q10 0 10 -14q0 -23 -7 -55q-13 -60 -28 -181l-44 -356q-6 -49 -6 -54q0 -29 36 -31l59 -3q12 -1 12 -8zM460 536q0 9 -4 9q-6 0 -11 -12.5t-9 -15.5q-6 -7 -32 -42l-107 -144
q-18 -24 -47 -62q-5 -4 -6 -7q0 -8 14 -7l20 1l50 -1q74 -1 90 7l31 205q3 20 9 55q2 10 2 14z" />
    <glyph glyph-name="Ecircumflex" unicode="&#xca;" horiz-adv-x="573" 
d="M591 937q0 -3 -4 -22l-34 -162q-2 -15 -12 -15q-35 0 -35 12q0 1 2 10l13 61q2 11 6 22q3 6 3 11q0 6 -4 6q-2 -1 -5 -5q-10 -13 -68 -63q-41 -35 -49 -35q-11 0 -11 7q0 2 5 6q101 72 165 157q15 20 19 20q9 0 9 -10zM675 683q0 -1 -2 -5q-5 -8 -11 -28
q-17 -59 -27.5 -100.5t-18.5 -41.5q-6 0 -6 8l1 7q13 32 13 77q0 49 -31.5 61.5t-106.5 13.5l-67 1q-17 0 -25 -20l-34 -90l-75 -192q36 -3 47 -3q51 0 89 26t53 71q5 15 12 15q9 0 9 -8q0 -2 -4 -11q-57 -122 -99 -249q-3 -14 -10 -14t-7 7q0 4 2 11q15 53 15 77
q0 32 -22 45t-78 13q-16 0 -24 -20l-108 -266q-12 -30 -12 -35q0 -9 18 -10l52 -2q26 -1 54 -1q145 0 199 63q28 32 52 105q7 20 17 20q7 0 7 -7q0 -4 -10 -30q-38 -99 -56 -155q-4 -11 -9 -14t-23 -3h-339q-124 0 -144.5 1t-20.5 8q0 6 9 7t58 1q19 0 26 7t21 41l202 488
q9 19 26.5 62t17.5 53q0 8 -9.5 9.5t-65.5 2.5q-12 0 -12 6q0 10 19 10h29q27 -1 66 -1l298 -2q18 0 22 1h6q17 0 17 -10z" />
    <glyph glyph-name="Aacute" unicode="&#xc1;" horiz-adv-x="627" 
d="M767 903q0 -5 -20 -20l-143 -106q-55 -41 -61 -41q-3 0 -3 3l8 10l127 159h75q17 2 17 -5zM593 9q0 -10 -34 -11q37 1 -39 2l-76 1l-132 -1q-7 -1 -16 -1q-17 0 -17 12q0 9 11 9t22 -1h11q27 0 48 9q14 6 21 56l20 135q1 3 1 8q0 7 -36 7h-89q-47 -1 -51 -1h-16
q-6 -6 -26 -30l-93 -128q-19 -26 -19 -36q0 -21 55 -21q6 0 18 1.5t18 1.5q14 0 14 -10q0 -11 -27 -11l-55 1l-91 -2q-65 -1 -82 1.5t-17 11.5q0 8 10 8q7 0 20 -2t20 -2q34 0 57 13q16 9 65 74l289 380q26 34 79 101l88 114q10 13 17 13q10 0 10 -14q0 -23 -7 -55
q-13 -60 -28 -181l-44 -356q-6 -49 -6 -54q0 -29 36 -31l59 -3q12 -1 12 -8zM460 536q0 9 -4 9q-6 0 -11 -12.5t-9 -15.5q-6 -7 -32 -42l-107 -144q-18 -24 -47 -62q-5 -4 -6 -7q0 -8 14 -7l20 1l50 -1q74 -1 90 7l31 205q3 20 9 55q2 10 2 14z" />
    <glyph glyph-name="Edieresis" unicode="&#xcb;" horiz-adv-x="573" 
d="M623 800q0 -22 -15.5 -38t-37.5 -16q-44 0 -44 41q0 23 16.5 39.5t39.5 16.5q41 0 41 -43zM448 796q0 -22 -16 -37t-39 -15q-42 0 -42 41q0 24 16.5 40t41.5 16q17 0 28 -13t11 -32zM675 683q0 -1 -2 -5q-5 -8 -11 -28q-17 -59 -27.5 -100.5t-18.5 -41.5q-6 0 -6 8l1 7
q13 32 13 77q0 49 -31.5 61.5t-106.5 13.5l-67 1q-17 0 -25 -20l-34 -90l-75 -192q36 -3 47 -3q51 0 89 26t53 71q5 15 12 15q9 0 9 -8q0 -2 -4 -11q-57 -122 -99 -249q-3 -14 -10 -14t-7 7q0 4 2 11q15 53 15 77q0 32 -22 45t-78 13q-16 0 -24 -20l-108 -266
q-12 -30 -12 -35q0 -9 18 -10l52 -2q26 -1 54 -1q145 0 199 63q28 32 52 105q7 20 17 20q7 0 7 -7q0 -4 -10 -30q-38 -99 -56 -155q-4 -11 -9 -14t-23 -3h-339q-124 0 -144.5 1t-20.5 8q0 6 9 7t58 1q19 0 26 7t21 41l202 488q9 19 26.5 62t17.5 53q0 8 -9.5 9.5t-65.5 2.5
q-12 0 -12 6q0 10 19 10h29q27 -1 66 -1l298 -2q18 0 22 1h6q17 0 17 -10z" />
    <glyph glyph-name="Egrave" unicode="&#xc8;" horiz-adv-x="573" 
d="M507 743q0 -8 -6 -8q-4 0 -11 12l-38 65q-11 19 -48 79l-10 16h87l23 -148q2 -7 3 -16zM675 683q0 -1 -2 -5q-5 -8 -11 -28q-17 -59 -27.5 -100.5t-18.5 -41.5q-6 0 -6 8l1 7q13 32 13 77q0 49 -31.5 61.5t-106.5 13.5l-67 1q-17 0 -25 -20l-34 -90l-75 -192q36 -3 47 -3
q51 0 89 26t53 71q5 15 12 15q9 0 9 -8q0 -2 -4 -11q-57 -122 -99 -249q-3 -14 -10 -14t-7 7q0 4 2 11q15 53 15 77q0 32 -22 45t-78 13q-16 0 -24 -20l-108 -266q-12 -30 -12 -35q0 -9 18 -10l52 -2q26 -1 54 -1q145 0 199 63q28 32 52 105q7 20 17 20q7 0 7 -7
q0 -4 -10 -30q-38 -99 -56 -155q-4 -11 -9 -14t-23 -3h-339q-124 0 -144.5 1t-20.5 8q0 6 9 7t58 1q19 0 26 7t21 41l202 488q9 19 26.5 62t17.5 53q0 8 -9.5 9.5t-65.5 2.5q-12 0 -12 6q0 10 19 10h29q27 -1 66 -1l298 -2q18 0 22 1h6q17 0 17 -10z" />
    <glyph glyph-name="Iacute" unicode="&#xcd;" horiz-adv-x="327" 
d="M555 903q0 -5 -20 -20l-143 -106q-55 -41 -61 -41q-3 0 -3 3l8 10l127 159h75q17 2 17 -5zM488 686q0 -9 -12 -9q-6 0 -10 1h-16q-43 0 -53 -16q-15 -23 -44 -97l-201 -515q-2 -6 -5 -14q0 -18 40 -23q13 0 31 -1q13 -1 13 -7q0 -7 -14 -7q-72 1 -207 1q-47 0 -54.5 1
t-7.5 6q0 7 27 7q37 1 49 5q19 7 28 22q9 22 21 52l195 490q29 73 29 80q0 17 -31 17h-40q-11 0 -11 8q0 7 11 7h9q6 -1 48 -1l149 1q6 -1 10 -1l37 1q9 0 9 -8z" />
    <glyph glyph-name="Icircumflex" unicode="&#xce;" horiz-adv-x="327" 
d="M481 937q0 -3 -4 -22l-34 -162q-2 -15 -12 -15q-35 0 -35 12q0 1 2 10l13 61q2 11 6 22q3 6 3 11q0 6 -4 6q-2 -1 -5 -5q-10 -13 -68 -63q-41 -35 -49 -35q-11 0 -11 7q0 2 5 6q101 72 165 157q15 20 19 20q9 0 9 -10zM488 686q0 -9 -12 -9q-6 0 -10 1h-16q-43 0 -53 -16
q-15 -23 -44 -97l-201 -515q-2 -6 -5 -14q0 -18 40 -23q13 0 31 -1q13 -1 13 -7q0 -7 -14 -7q-72 1 -207 1q-47 0 -54.5 1t-7.5 6q0 7 27 7q37 1 49 5q19 7 28 22q9 22 21 52l195 490q29 73 29 80q0 17 -31 17h-40q-11 0 -11 8q0 7 11 7h9q6 -1 48 -1l149 1q6 -1 10 -1l37 1
q9 0 9 -8z" />
    <glyph glyph-name="Idieresis" unicode="&#xcf;" horiz-adv-x="327" 
d="M488 800q0 -22 -15.5 -38t-37.5 -16q-44 0 -44 41q0 23 16.5 39.5t39.5 16.5q41 0 41 -43zM350 796q0 -22 -16 -37t-39 -15q-42 0 -42 41q0 24 16.5 40t41.5 16q17 0 28 -13t11 -32zM488 686q0 -9 -12 -9q-6 0 -10 1h-16q-43 0 -53 -16q-15 -23 -44 -97l-201 -515
q-2 -6 -5 -14q0 -18 40 -23q13 0 31 -1q13 -1 13 -7q0 -7 -14 -7q-72 1 -207 1q-47 0 -54.5 1t-7.5 6q0 7 27 7q37 1 49 5q19 7 28 22q9 22 21 52l195 490q29 73 29 80q0 17 -31 17h-40q-11 0 -11 8q0 7 11 7h9q6 -1 48 -1l149 1q6 -1 10 -1l37 1q9 0 9 -8z" />
    <glyph glyph-name="Igrave" unicode="&#xcc;" horiz-adv-x="327" 
d="M397 743q0 -8 -6 -8q-4 0 -11 12l-38 65q-11 19 -48 79l-10 16h87l23 -148q2 -7 3 -16zM488 686q0 -9 -12 -9q-6 0 -10 1h-16q-43 0 -53 -16q-15 -23 -44 -97l-201 -515q-2 -6 -5 -14q0 -18 40 -23q13 0 31 -1q13 -1 13 -7q0 -7 -14 -7q-72 1 -207 1q-47 0 -54.5 1
t-7.5 6q0 7 27 7q37 1 49 5q19 7 28 22q9 22 21 52l195 490q29 73 29 80q0 17 -31 17h-40q-11 0 -11 8q0 7 11 7h9q6 -1 48 -1l149 1q6 -1 10 -1l37 1q9 0 9 -8z" />
    <glyph glyph-name="Oacute" unicode="&#xd3;" horiz-adv-x="710" 
d="M734 903q0 -5 -20 -20l-143 -106q-55 -41 -61 -41q-3 0 -3 3l8 10l127 159h75q17 2 17 -5zM739 469q0 -104 -52 -204.5t-142 -172.5q-133 -105 -266 -105q-100 0 -156 55.5t-56 155.5q0 101 52 207.5t140 183.5q132 116 270 116q101 0 157 -73q53 -69 53 -163zM644 533
q0 57 -22 101q-28 57 -101 57q-125 0 -237 -181q-55 -89 -87.5 -189t-32.5 -181q0 -139 126 -139q75 0 147 63q96 83 154 235q53 138 53 234z" />
    <glyph glyph-name="Ocircumflex" unicode="&#xd4;" horiz-adv-x="710" 
d="M660 937q0 -3 -4 -22l-34 -162q-2 -15 -12 -15q-35 0 -35 12q0 1 2 10l13 61q2 11 6 22q3 6 3 11q0 6 -4 6q-2 -1 -5 -5q-10 -13 -68 -63q-41 -35 -49 -35q-11 0 -11 7q0 2 5 6q101 72 165 157q15 20 19 20q9 0 9 -10zM739 469q0 -104 -52 -204.5t-142 -172.5
q-133 -105 -266 -105q-100 0 -156 55.5t-56 155.5q0 101 52 207.5t140 183.5q132 116 270 116q101 0 157 -73q53 -69 53 -163zM644 533q0 57 -22 101q-28 57 -101 57q-125 0 -237 -181q-55 -89 -87.5 -189t-32.5 -181q0 -139 126 -139q75 0 147 63q96 83 154 235
q53 138 53 234z" />
    <glyph glyph-name="apple" unicode="&#xf8ff;" horiz-adv-x="790" 
d="M566 808q0 -52 -2 -62q-8 -42 -34 -68q-30 -30 -68 -53q-7 -4 -56 -9q-3 30 6 52.5t34 67.5q28 35 54 48q38 19 66 24zM733 213q-61 -131 -109 -174q-14 -12 -27 -24q-17 -11 -47 -16q-8 -1 -17 -1q-29 0 -55 12q-43 20 -69 20q-25 0 -69 -20q-27 -13 -53 -13q-9 0 -18 2
q-37 7 -63 30q-60 54 -109 160q-41 89 -41 190q0 23 3 41q20 108 86 160q51 40 132 40q27 0 69 -16t63 -16q22 0 47 11q36 14 42 16q18 5 44 5q81 0 132 -40q14 -11 38 -38q-47 -34 -67 -68q-27 -46 -26 -100q1 -56 33 -98q23 -31 43 -44q19 -9 38 -19z" />
    <glyph glyph-name="Ograve" unicode="&#xd2;" horiz-adv-x="710" 
d="M576 743q0 -8 -6 -8q-4 0 -11 12l-38 65q-11 19 -48 79l-10 16h87l23 -148q2 -7 3 -16zM739 469q0 -104 -52 -204.5t-142 -172.5q-133 -105 -266 -105q-100 0 -156 55.5t-56 155.5q0 101 52 207.5t140 183.5q132 116 270 116q101 0 157 -73q53 -69 53 -163zM644 533
q0 57 -22 101q-28 57 -101 57q-125 0 -237 -181q-55 -89 -87.5 -189t-32.5 -181q0 -139 126 -139q75 0 147 63q96 83 154 235q53 138 53 234z" />
    <glyph glyph-name="Uacute" unicode="&#xda;" horiz-adv-x="647" 
d="M733 903q0 -5 -20 -20l-143 -106q-55 -41 -61 -41q-3 0 -3 3l8 10l127 159h75q17 2 17 -5zM826 684q0 -9 -17 -9h-12q-6 1 -18 1q-28 0 -37 -7.5t-20 -39.5q-4 -11 -24 -62l-91 -229q-85 -215 -147 -276q-77 -76 -200 -76q-80 0 -127.5 33t-47.5 88q0 58 49 179l126 310
q7 18 20 47q4 7 4 12q0 17 -25 20h-30q-10 0 -10 6q0 9 16 9h9l96 -1l115 1q11 0 11 -6q0 -7 -5 -8t-37 -2q-28 -1 -32 -5q-7 -4 -15 -19q-9 -25 -25 -64l-123 -310q-50 -126 -50 -183q0 -38 27 -62t69 -24q121 0 192 100q48 68 114 237l88 226q29 74 29 85q0 21 -37 21h-9
q-8 -1 -15 -1q-9 0 -9 7q0 8 16 8h15l137 -1q9 1 20 1q10 0 10 -6z" />
    <glyph glyph-name="Ucircumflex" unicode="&#xdb;" horiz-adv-x="647" 
d="M659 937q0 -3 -4 -22l-34 -162q-2 -15 -12 -15q-35 0 -35 12q0 1 2 10l13 61q2 11 6 22q3 6 3 11q0 6 -4 6q-2 -1 -5 -5q-10 -13 -68 -63q-41 -35 -49 -35q-11 0 -11 7q0 2 5 6q101 72 165 157q15 20 19 20q9 0 9 -10zM826 684q0 -9 -17 -9h-12q-6 1 -18 1
q-28 0 -37 -7.5t-20 -39.5q-4 -11 -24 -62l-91 -229q-85 -215 -147 -276q-77 -76 -200 -76q-80 0 -127.5 33t-47.5 88q0 58 49 179l126 310q7 18 20 47q4 7 4 12q0 17 -25 20h-30q-10 0 -10 6q0 9 16 9h9l96 -1l115 1q11 0 11 -6q0 -7 -5 -8t-37 -2q-28 -1 -32 -5
q-7 -4 -15 -19q-9 -25 -25 -64l-123 -310q-50 -126 -50 -183q0 -38 27 -62t69 -24q121 0 192 100q48 68 114 237l88 226q29 74 29 85q0 21 -37 21h-9q-8 -1 -15 -1q-9 0 -9 7q0 8 16 8h15l137 -1q9 1 20 1q10 0 10 -6z" />
    <glyph glyph-name="Ugrave" unicode="&#xd9;" horiz-adv-x="647" 
d="M574 743q0 -8 -6 -8q-4 0 -11 12l-38 65q-11 19 -48 79l-10 16h87l23 -148q2 -7 3 -16zM826 684q0 -9 -17 -9h-12q-6 1 -18 1q-28 0 -37 -7.5t-20 -39.5q-4 -11 -24 -62l-91 -229q-85 -215 -147 -276q-77 -76 -200 -76q-80 0 -127.5 33t-47.5 88q0 58 49 179l126 310
q7 18 20 47q4 7 4 12q0 17 -25 20h-30q-10 0 -10 6q0 9 16 9h9l96 -1l115 1q11 0 11 -6q0 -7 -5 -8t-37 -2q-28 -1 -32 -5q-7 -4 -15 -19q-9 -25 -25 -64l-123 -310q-50 -126 -50 -183q0 -38 27 -62t69 -24q121 0 192 100q48 68 114 237l88 226q29 74 29 85q0 21 -37 21h-9
q-8 -1 -15 -1q-9 0 -9 7q0 8 16 8h15l137 -1q9 1 20 1q10 0 10 -6z" />
    <glyph glyph-name="dotlessi" unicode="&#x131;" horiz-adv-x="240" 
d="M256 424q0 -3 -5 -12q-7 -12 -23 -49l-115 -263q-23 -53 -23 -66q0 -27 28 -27q19 0 43.5 13.5t37.5 32.5q9 12 14 12q6 0 6 -6q0 -12 -28 -36q-42 -36 -95 -36q-35 0 -57.5 18t-22.5 46q0 25 25 81l104 232q5 17 12 26q3 4 3 7q0 9 -44 12q-8 2 -8 7q0 9 8 9q1 0 15 -2
t45 -2q42 0 59 7q10 4 14 4q7 0 7 -8z" />
    <glyph glyph-name="circumflex" unicode="&#x2c6;" horiz-adv-x="517" 
d="M472 706q0 -3 -4 -22l-34 -163q-2 -15 -12 -15q-35 0 -35 12q0 2 2 11l13 61q2 8 6 21q3 6 3 11q0 6 -4 6q-2 -1 -5 -5q-7 -10 -68 -63q-40 -35 -49 -35q-11 0 -11 6q0 5 15 15q33 21 82 68.5t73 81.5q13 19 19 19q9 0 9 -9z" />
    <glyph glyph-name="tilde" unicode="&#x2dc;" horiz-adv-x="517" 
d="M537 606q0 -3 -3 -6l-10 -17q-40 -68 -94 -68q-19 0 -32.5 6.5t-56.5 35.5q-35 24 -56 24q-10 0 -19 -10t-9 -22q0 -8 5.5 -14.5t5.5 -8.5q0 -7 -8 -7q-7 0 -12.5 10t-5.5 21q0 25 31 47.5t65 22.5t89 -39q31 -22 47 -22q18 0 33.5 26t22.5 26t7 -5z" />
    <glyph glyph-name="macron" unicode="&#xaf;" horiz-adv-x="517" 
d="M491 586l-19 -51h-237l18 51h238z" />
    <glyph glyph-name="macron" unicode="&#x2c9;" horiz-adv-x="517" 
d="M491 586l-19 -51h-237l18 51h238z" />
    <glyph glyph-name="breve" unicode="&#x2d8;" horiz-adv-x="517" 
d="M515 644q0 -17 -33 -58q-57 -71 -128 -71q-84 0 -84 94q0 38 12 38q4 0 4 -4v-3q-1 -4 -1 -11q0 -61 90 -61q53 0 86 26q10 8 38 45q8 10 12 10t4 -5z" />
    <glyph glyph-name="dotaccent" unicode="&#x2d9;" horiz-adv-x="517" 
d="M413 565q0 -24 -15 -39t-39 -15q-44 0 -44 44q0 23 16.5 38.5t40.5 15.5q41 0 41 -44z" />
    <glyph glyph-name="ring" unicode="&#x2da;" horiz-adv-x="517" 
d="M452 592q0 -34 -23.5 -58t-58.5 -24q-37 0 -60 23t-23 60q0 36 23.5 59.5t60.5 23.5q34 0 57.5 -24.5t23.5 -59.5zM430 594q0 26 -18 45t-42 19t-43 -20t-19 -46t18.5 -44.5t43.5 -18.5t42.5 19t17.5 46z" />
    <glyph glyph-name="cedilla" unicode="&#xb8;" horiz-adv-x="517" 
d="M304 -86q0 -41 -35 -70t-84 -29q-25 0 -45 8.5t-20 19.5q0 6 5 6q-3 0 22 -13q10 -5 24 -5q35 0 59.5 28t24.5 68q0 29 -30 29h-7l16 44h15l-13 -35q34 -2 47 -9q21 -12 21 -42z" />
    <glyph glyph-name="hungarumlaut" unicode="&#x2dd;" horiz-adv-x="517" 
d="M657 657l-217 -150q-3 -3 -6 -3t-3 3t15 20l116 130h95zM503 658l-217 -151q-2 -2 -5 -2q-3 1 -3 3q0 1 14 18l117 132h94z" />
    <glyph glyph-name="ogonek" unicode="&#x2db;" horiz-adv-x="517" 
d="M302 -150q0 -10 -36 -24.5t-60 -14.5q-28 0 -46 15t-18 39q0 45 52 87q24 20 89 48h11q-40 -24 -65.5 -58.5t-25.5 -65.5q0 -43 36 -43q17 0 36.5 10.5t21.5 10.5q5 0 5 -4z" />
    <glyph glyph-name="caron" unicode="&#x2c7;" horiz-adv-x="517" 
d="M544 694q0 -3 -5 -6q-23 -15 -83.5 -73t-85.5 -89q-13 -19 -18 -19q-9 0 -9 10q0 3 2 12l3 13l31 142q5 23 7 26.5t11 3.5q32 0 32 -11q0 -1 -3 -14l-19 -77l-2 -12q0 -5 4 -5q3 0 33 31q5 5 11 12l36 31q39 34 40 34q3 0 9 -3.5t6 -5.5z" />
    <glyph glyph-name="Lslash" unicode="&#x141;" horiz-adv-x="578" 
d="M553 197q0 -14 -56 -154l-12 -30q-4 -10 -9.5 -11.5t-36.5 -1.5h-61q-42 0 -83.5 1t-37.5 1h-32q-28 -1 -51 -1h-80q-20 0 -40 1q-20 0 -19 0q-13 0 -39 -2t-39 -2q-14 0 -14 8q0 9 25 9q2 -2 51 2q17 1 22.5 5.5t12.5 21.5l17 40l94 229l-100 -47q-15 -7 -19 -7
q-12 0 -12 12q0 9 21 19l125 59l109 265q17 41 17 52q0 15 -50 15q3 0 -29 -2q-9 -1 -9 8q0 10 48 10q-1 0 43 -1q24 -1 47 -3q49 -2 104 1l19 1q5 1 12 1q10 0 10 -10q0 -9 -12 -9q-1 0 -21 2h-12q-35 0 -43.5 -6t-37.5 -78l-77 -195l119 63q12 6 16 6q11 0 11 -12
q0 -8 -18 -17l-142 -73l-117 -295q-8 -19 -12 -31q-2 -4 -3 -7q0 -16 41 -16q140 0 192 14q76 20 125 112q18 34 25 53q3 9 9 9q9 0 9 -9z" />
    <glyph glyph-name="lslash" unicode="&#x142;" horiz-adv-x="267" 
d="M375 700q0 -4 -14 -38l-106 -258l90 49q11 6 19 6t8 -9q0 -12 -25 -25l-106 -54l-105 -256q-24 -59 -24 -79q0 -27 36 -27q37 0 72 42q15 18 20 18q6 0 6 -7q0 -13 -33 -42q-38 -34 -98 -34q-83 0 -83 61q0 20 25 81l83 201l-79 -40q-16 -8 -24 -8q-10 0 -10 10
q0 12 23 23l105 50l116 282q13 32 13 36q0 8 -26 8h-11q-25 0 -25 8q0 6 9 6q10 0 20.5 -1t35.5 -1q38 0 62 4q12 2 16 2q10 0 10 -8z" />
    <glyph glyph-name="Scaron" unicode="&#x160;" horiz-adv-x="469" 
d="M593 926q0 -3 -5 -6q-27 -19 -85.5 -75t-83.5 -88q-14 -19 -18 -19q-9 0 -9 10q0 3 2 12l3 14l31 142q5 23 7 26.5t11 3.5q32 0 32 -11q0 -2 -3 -15l-19 -77q-2 -10 -2 -11q0 -5 4 -5q3 0 33 31q5 5 11 12q24 20 36 31q8 7 22 20l2 2q13 12 16 12t9 -3.5t6 -5.5zM559 697
q0 -9 -18.5 -44t-33.5 -108q-4 -17 -13 -17q-7 0 -7 7v6q3 21 3 37q0 49 -32.5 78t-87.5 29q-61 0 -102.5 -36t-41.5 -89q0 -56 71 -127l60 -60q80 -80 80 -161q0 -93 -71.5 -159t-173.5 -66q-59 0 -99 22q-5 3 -44 32q-11 8 -22 8q-23 0 -38 -49q-4 -14 -11 -14q-9 0 -9 10
q0 1 9 23q33 81 59 159q8 24 20 24q7 0 7 -7q0 -2 -4 -12q-7 -11 -7 -50q0 -126 140 -126q71 0 115.5 41t44.5 107q0 76 -69 140l-56 52q-85 79 -85 156q0 81 66 140t157 59q50 0 100 -21q31 -13 40 -13q19 0 36 26q6 10 11 10q6 0 6 -7z" />
    <glyph glyph-name="scaron" unicode="&#x161;" horiz-adv-x="346" 
d="M483 694q0 -3 -5 -6q-23 -15 -83.5 -73t-85.5 -89q-13 -19 -18 -19q-9 0 -9 10q0 3 2 12l3 13l31 142q5 23 7 26.5t11 3.5q32 0 32 -11q0 -1 -3 -14l-19 -77l-2 -12q0 -5 4 -5q3 0 33 31q5 5 11 12l36 31q39 34 40 34q3 0 9 -3.5t6 -5.5zM380 354q0 -17 -11 -29t-26 -12
q-30 0 -30 29q0 24 20 24q3 0 9.5 -3t10.5 -3q6 0 6 7q0 17 -23 33t-47 16q-32 0 -54 -20.5t-22 -49.5q0 -25 47 -139q11 -27 11 -61q0 -68 -46 -114t-115 -46q-60 0 -100.5 33.5t-40.5 82.5q0 28 16.5 46t41.5 18q19 0 32.5 -13t13.5 -31q0 -30 -29 -30q-31 0 -31 21
q0 7 2.5 14t2.5 8q0 10 -8 10q-9 0 -16.5 -13.5t-7.5 -29.5q0 -39 32.5 -68t76.5 -29q41 0 68.5 25t27.5 63q0 27 -21 88q-20 58 -20 96q0 65 39.5 109.5t96.5 44.5q38 0 66 -23t28 -54z" />
    <glyph glyph-name="Zcaron" unicode="&#x17d;" horiz-adv-x="570" 
d="M674 926q0 -3 -5 -6q-27 -19 -85.5 -75t-83.5 -88q-14 -19 -18 -19q-9 0 -9 10q0 3 2 12l3 14l31 142q5 23 7 26.5t11 3.5q32 0 32 -11q0 -2 -3 -15l-19 -77q-2 -10 -2 -11q0 -5 4 -5q3 0 33 31q5 5 11 12q24 20 36 31q8 7 22 20l2 2q13 12 16 12t9 -3.5t6 -5.5zM703 691
q-12 -16 -50 -58l-420 -471q-24 -27 -85 -98q-9 -10 -35 -42q49 -4 147 -4q74 0 114 15t77 56q33 36 68 107q7 14 14 14t7 -7q0 -19 -86 -205q-42 2 -135 2l-325 -1q-5 -1 -13 -1t-8 5q0 1 15 16q26 28 79 85q3 4 22 23q59 62 99 106l386 430q-85 8 -120 8
q-98 0 -146.5 -29.5t-88.5 -112.5q-10 -21 -20 -21q-7 0 -7 9q0 7 19 47q8 16 23.5 49t39.5 82q72 -6 148 -6h128q59 0 94 2q18 1 34 1q14 0 25 -1z" />
    <glyph glyph-name="zcaron" unicode="&#x17e;" horiz-adv-x="403" 
d="M475 694q0 -3 -5 -6q-23 -15 -83.5 -73t-85.5 -89q-13 -19 -18 -19q-9 0 -9 10q0 3 2 12l3 13l31 142q5 23 7 26.5t11 3.5q32 0 32 -11q0 -1 -3 -14l-19 -77l-2 -12q0 -5 4 -5q3 0 33 31q5 5 11 12l36 31q39 34 40 34q3 0 9 -3.5t6 -5.5zM409 420q0 -19 -28 -45
q-20 -18 -41 -36q-181 -156 -277 -268q39 10 60 10q41 0 132 -37q34 -14 50 -14t27.5 12t11.5 29q0 19 -30 28q-11 6 -11 20q0 32 34 32q33 0 33 -38q0 -58 -45 -100q-38 -35 -65 -35q-11 0 -62 15q-143 42 -158 42q-12 0 -15 -17q-3 -20 -19 -20q-12 0 -12 10q0 16 21 40
q18 19 52 57q119 131 220 214q17 14 45 39q-56 -19 -103 -19q-59 0 -107 31q-8 5 -12 5q-7 0 -11 -7t-16 -42q-5 -14 -14 -14q-7 0 -7 7q0 3 4 11q10 19 34 97q3 15 11 15q5 0 34 -12q92 -38 181 -38q60 0 60 23q0 2 -1 8q-1 2 -1 5q0 11 13 11q12 0 12 -19z" />
    <glyph glyph-name="brokenbar" unicode="&#xa6;" horiz-adv-x="517" 
d="M308 343h-57v346h57v-346zM308 -172h-57v331h57v-331z" />
    <glyph glyph-name="Eth" unicode="&#xd0;" horiz-adv-x="718" 
d="M747 469q0 -143 -84.5 -258.5t-227.5 -170.5q-64 -24 -106.5 -31t-145.5 -8q-32 0 -152 -1l-56 -1q-9 -1 -21 -1q-14 0 -14 9q0 8 13 10q9 1 31 1q47 0 58 9q2 0 7 9t15 32l13 30l99 246l-21 -1h-21q-3 0 -13 1h-17q-14 0 -21 -1h-9q-16 0 -16 12t18 12h8q10 -1 55 -1
q26 0 47 1l93 231q21 52 21 61q0 12 -31 15l-54 5q-16 0 -16 8t21 8q15 0 60 -2q23 -1 62 -1h67q22 0 51 1h34q90 0 147 -29q106 -56 106 -195zM648 502q0 97 -52 139q-42 34 -118 34q-40 0 -60 -4q-10 -2 -23 -30q-17 -35 -27 -61l-84 -212q11 -1 19 -1l82 1q13 0 13 -12
t-33 -14q7 0 -40 0q-15 0 -50 2l-96 -242q-25 -63 -25 -67q0 -15 56 -15q100 0 168.5 29.5t131.5 100t100.5 165.5t37.5 187z" />
    <glyph glyph-name="eth" unicode="&#xf0;" horiz-adv-x="453" 
d="M507 637q0 -9 -62 -30q-23 -8 -45 -18q57 -111 57 -228q0 -155 -85 -265t-205 -110q-69 0 -108.5 40t-39.5 109q0 70 37 134.5t102 107.5q79 52 138 52q45 0 73 -22q-6 84 -33 166l-87 -32q-16 -6 -21 -6q-10 0 -10 10q0 8 20 15l92 34q-26 67 -67 117q-2 2 -2 4q0 5 6 5
q9 0 44 -27q39 -30 75 -84l94 35q16 4 15 4q12 0 12 -11zM367 342q0 67 -70 67q-82 0 -137 -103q-65 -122 -65 -222q0 -80 74 -80q86 0 149 142q49 110 49 196z" />
    <glyph glyph-name="Yacute" unicode="&#xdd;" horiz-adv-x="543" 
d="M653 903q0 -5 -20 -20l-143 -106q-55 -41 -61 -41q-3 0 -3 3l8 10l127 159h75q17 2 17 -5zM739 684q0 -5 -27 -8q-44 -4 -60 -15t-63 -67l-195 -233q-36 -43 -43 -54q-13 -20 -29 -61l-65 -169q-15 -39 -15 -41q0 -19 35 -21l22 -1l15 -1q10 1 10 -5q0 -9 -21 -9
q-12 0 -69 2t-63 2q-35 0 -97 -4q-16 -1 -26 -1q-8 0 -8 6q0 7 7 8.5t51 4.5q31 2 42.5 12.5t26.5 49.5l69 180q16 42 16 60q0 9 -3 48l-23 284q-2 19 -19 24q-7 2 -34 2t-27 8t14 8q9 0 15 -1l118 -2q79 -1 105 1q11 1 18 1q15 0 15 -7q0 -8 -29 -9q-49 -1 -65 -9t-16 -30
q0 -15 2 -38l22 -258l215 256q47 56 47 64q0 14 -27 14q-51 0 -51 8q0 9 23 9h63h40q29 -1 49 -1h22q13 0 13 -7z" />
    <glyph glyph-name="Thorn" unicode="&#xde;" horiz-adv-x="568" 
d="M600 397q0 -94 -90 -160.5t-218 -66.5q-29 0 -89 8l-57 -151q-2 -3 -3 -5q0 -8 16 -8l70 1q11 0 11 -6q0 -11 -18 -11q-13 0 -38 1t-38 1h-65q-100 0 -108 -1t-15 -1q-11 0 -11 7q0 11 12 11h10l34 -2q16 -1 26 -1q9 0 12.5 6t18.5 42l230 573q8 20 13 41q-9 1 -21 1
q8 0 -26 -2l-17 -1q-27 -2 -27 8q0 9 14 10.5t90 1.5h43q11 0 24 1h16l75 -2l12 1q9 1 9 -8q0 -7 -9.5 -7t-51.5 -2q-25 -1 -32 -7t-18 -36l-37 -97h38q94 0 145 -26q70 -36 70 -113zM499 411q0 87 -63 103q-20 5 -73 5q-10 0 -26 -4l-125 -316q48 -11 74 -11q83 0 148 68
t65 155z" />
    <glyph glyph-name="thorn" unicode="&#xfe;" horiz-adv-x="488" 
d="M481 311q0 -61 -33.5 -128.5t-89.5 -117.5q-83 -75 -172 -75q-38 0 -57 12.5t-35 46.5l-113 -281q70 -3 70 -10q0 -8 -21 -8l-57 1q-13 0 -27 1t-15 1q-20 0 -39 -1q-38 -2 -51 -2q-20 0 -20 8t26 10q37 3 46.5 9.5t14.5 17.5q3 8 10 24l351 851q3 4 3 7q0 9 -15 9
q-11 0 -19 -1q-4 -1 -11 -1q-10 0 -10 7q0 8 14 8q-5 0 7 -1q9 -1 31 0l21 1l35 2l23 4q12 2 9 2q5 0 5 -6q0 -3 -6 -18l-129 -325q60 72 133 72q53 0 87 -33.5t34 -85.5zM396 346q0 61 -53 61q-48 0 -102 -56q-36 -37 -79 -141l-43 -104q-8 -19 -8 -27q0 -31 18.5 -50.5
t47.5 -19.5q81 0 156 139q63 116 63 198z" />
    <glyph glyph-name="minus" unicode="&#x2212;" horiz-adv-x="524" 
d="M518 317h-414v36h414v-36z" />
    <glyph glyph-name="onesuperior" unicode="&#xb9;" horiz-adv-x="341" 
d="M394 696q0 -8 -7 -21q-9 -16 -10 -21l-125 -320q-10 -26 -10 -29q0 -7 14 -7l45 1q13 0 13 -10t-12 -10h-7q-8 1 -27 1h-149q-5 0 -9 -1h-8q-12 0 -12 9q0 8 6.5 9t46.5 1q17 0 23 6t16 30l95 242q28 71 28 80q0 6 -8 6t-33 -4q-6 -1 -14 -1q-10 0 -10 8q0 7 38 13
q11 2 58 14q43 12 50 12q8 0 8 -8z" />
    <glyph glyph-name="twosuperior" unicode="&#xb2;" horiz-adv-x="341" 
d="M430 616q0 -53 -51 -101q-40 -37 -179 -125q-37 -23 -82 -54h8l47 -1q83 -2 105 1q17 2 29 12q19 16 32 42q6 11 13 11q10 0 10 -10q0 -8 -23 -49q-4 -8 -11 -25l-18 -36q-30 -2 -69 -2h-27l-80 1q-33 0 -87 3l8 20q10 25 49 50q70 44 146 104q104 81 104 161
q0 60 -57 60q-41 0 -67 -32q-15 -19 -15 -28q0 -3 4 -3q2 0 7 1h3q24 0 24 -25q0 -14 -11 -24t-26 -10q-13 0 -23.5 10.5t-10.5 23.5q0 38 38.5 74.5t98.5 36.5q55 0 80 -21q31 -26 31 -65z" />
    <glyph glyph-name="threesuperior" unicode="&#xb3;" horiz-adv-x="341" 
d="M438 620q0 -80 -126 -115q63 -22 63 -82q0 -61 -52.5 -105t-125.5 -44q-111 0 -111 83q0 26 14 42.5t36 16.5q31 0 31 -26q0 -32 -40 -32q-9 0 -14 -1.5t-5 -10.5q0 -21 20.5 -35t50.5 -14q51 0 87.5 41.5t36.5 99.5q0 23 -13 38.5t-33 14.5l-37 -1q-15 0 -15 15
q0 12 23 12q56 0 91 24q50 35 50 88t-52 53q-27 0 -51.5 -14t-24.5 -29q0 -5 10 -5q23 -1 23 -28q0 -31 -32 -31q-34 0 -34 36q0 39 36.5 66t89.5 27q104 0 104 -84z" />
    <glyph glyph-name="onehalf" unicode="&#xbd;" horiz-adv-x="789" 
d="M777 336q0 -53 -51 -102q-38 -36 -179 -125q-31 -19 -83 -53q28 -1 49 -1q93 0 111 1.5t29 11.5q21 17 32 41q6 12 13 12q10 0 10 -10q0 -6 -22 -50l-12 -24l-9.5 -19t-8.5 -18q-31 -1 -73 -1q-139 0 -190 3l8 21q9 23 50 49q65 42 145 104q105 82 105 163q0 59 -57 59
q-43 0 -68 -32q-15 -19 -15 -27q0 -4 5 -4q3 0 6 1h3q24 0 24 -24q0 -14 -11 -24.5t-26 -10.5q-13 0 -23.5 10.5t-10.5 23.5q0 37 38 74t99 37q54 0 81 -22q31 -25 31 -64zM749 685q0 -1 -58 -70l-513 -608q-14 -17 -21 -17q-4 0 -13.5 6.5t-9.5 9.5q0 1 10 14l567 667
q11 13 15 13q5 0 14 -6t9 -9zM395 696q0 -8 -7 -21q-9 -16 -10 -21l-125 -320q-10 -26 -10 -29q0 -7 14 -7l45 1q13 0 13 -10t-12 -10h-7q-8 1 -27 1h-149q-5 0 -9 -1h-8q-12 0 -12 9q0 8 6.5 9t46.5 1q17 0 23 6t16 30l95 242q28 71 28 80q0 6 -8 6t-33 -4q-6 -1 -14 -1
q-10 0 -10 8q0 7 38 13q11 2 58 14q43 12 50 12q8 0 8 -8z" />
    <glyph glyph-name="onequarter" unicode="&#xbc;" horiz-adv-x="789" 
d="M774 419q0 -5 -9 -13l-286 -251h129l56 135q6 15 14 15q5 0 24 -3q24 -4 24 -12q0 -4 -2 -12l-50 -124h5q10 1 28 1q6 1 12 1q14 0 14 -12q0 -15 -21 -15h-44l-18 -47q-13 -37 -28 -80q-6 -10 -21 -10q-26 0 -36 2t-10 10q0 3 3 11l43 116h-154q-16 0 -16 7q0 5 7 11
l288 251q3 2 11 12q15 18 25 18q12 0 12 -11zM767 685q0 -1 -58 -70l-513 -608q-14 -17 -21 -17q-4 0 -13.5 6.5t-9.5 9.5q1 4 10 14l567 667q11 13 16 13q4 0 13 -6t9 -9zM395 696q0 -8 -7 -21q-9 -16 -10 -21l-125 -320q-10 -26 -10 -29q0 -7 14 -7l45 1q13 0 13 -10
t-12 -10h-7q-8 1 -27 1h-149q-5 0 -9 -1h-8q-12 0 -12 9q0 8 6.5 9t46.5 1q17 0 23 6t16 30l95 242q28 71 28 80q0 6 -8 6t-33 -4q-6 -1 -14 -1q-10 0 -10 8q0 7 38 13q11 2 58 14q43 12 50 12q8 0 8 -8z" />
    <glyph glyph-name="threequarters" unicode="&#xbe;" horiz-adv-x="789" 
d="M773 419q0 -5 -9 -13l-285 -251h128l56 135q6 15 13 15q4 0 26.5 -3t22.5 -13q0 -3 -2 -11l-50 -124h5q10 1 28 1q6 1 12 1q14 0 14 -12q0 -15 -20 -15h-45l-18 -47q-13 -37 -28 -80q-6 -10 -21 -10q-26 0 -36 2t-10 10q0 3 3 11l43 116h-154q-16 0 -16 7q0 5 7 11
l288 251q3 2 11 12q15 18 25 18q12 0 12 -11zM773 685q0 -1 -58 -70l-514 -608q-14 -17 -20 -17q-5 0 -14.5 6.5t-9.5 9.5q0 1 10 14l568 667q11 13 15 13q5 0 14 -6t9 -9zM438 620q0 -80 -126 -115q63 -22 63 -82q0 -61 -52.5 -105t-125.5 -44q-111 0 -111 83q0 26 14 42.5
t36 16.5q31 0 31 -26q0 -32 -40 -32q-9 0 -14 -1.5t-5 -10.5q0 -21 20.5 -35t50.5 -14q51 0 87.5 41.5t36.5 99.5q0 23 -13 38.5t-33 14.5l-37 -1q-15 0 -15 15q0 12 23 12q56 0 91 24q50 35 50 88t-52 53q-27 0 -51.5 -14t-24.5 -29q0 -5 10 -5q23 -1 23 -28q0 -31 -32 -31
q-34 0 -34 36q0 39 36.5 66t89.5 27q104 0 104 -84z" />
    <glyph glyph-name="periodcentered" unicode="&#xb7;" horiz-adv-x="216" 
d="M172 231q0 -26 -16.5 -42t-42.5 -16q-51 0 -51 49q0 26 17.5 43.5t43.5 17.5q49 0 49 -52z" />
    <glyph glyph-name="sfthyphen" unicode="&#xad;" horiz-adv-x="263" 
d="M252 266l-10 -55h-202l8 55h204z" />
    <glyph glyph-name="notequal" unicode="&#x2260;" horiz-adv-x="549" 
d="M501 139h-279l-117 -117l-39 40l77 77h-95v58h148l79 78h-227v58h279l117 117l40 -40l-78 -77h95v-58h-147l-79 -78h226v-58z" />
    <glyph glyph-name="partialdiff" unicode="&#x2202;" horiz-adv-x="494" 
d="M436 367q0 -130 -47 -238q-61 -142 -175 -142q-74 0 -116 59q-36 51 -36 129q0 79 49 140q52 65 129 65q87 0 118 -93q12 45 12 148q0 167 -63 167q-17 0 -50 -35t-56 -35q-37 0 -37 32q0 34 36 54q30 17 66 17q93 0 137 -93q33 -71 33 -175zM341 224q0 125 -85 125
q-65 0 -97 -84q-23 -60 -23 -137q0 -119 84 -119q63 0 96 81q25 61 25 134z" />
    <glyph glyph-name="summation" unicode="&#x2211;" horiz-adv-x="713" 
d="M661 20q-10 -43 -53 -236h-572l398 436l-384 524h550l33 -230h-34q-33 108 -92.5 153t-171.5 45h-142l325 -446l-359 -394h212q109 0 158 25q61 30 97 123h35z" />
    <glyph glyph-name="integral" unicode="&#x222b;" horiz-adv-x="274" 
d="M364 690q0 -48 -49 -48q-26 0 -43.5 37t-29.5 37q-38 0 -48 -109q-3 -31 -12 -309q-9 -272 -47 -362q-50 -117 -144 -117q-33 0 -57 17.5t-24 49.5q0 47 49 47q26 0 44 -36.5t30 -36.5q36 0 47 109q6 58 9 220q4 169 11 250q11 135 39 201q49 117 144 117q33 0 57 -17.5
t24 -49.5z" />
    <glyph glyph-name="radical" unicode="&#x221a;" horiz-adv-x="549" 
d="M594 764h-57l-290 -784h-32l-156 431l-61 -22l-12 39l138 48l125 -346l252 681h93v-47z" />
    <glyph glyph-name="approxequal" unicode="&#x2248;" horiz-adv-x="549" 
d="M531 297q-81 -54 -146 -54q-34 0 -105.5 23.5t-109.5 23.5q-60 0 -152 -65v69q86 56 157 56q38 0 84 -14q29 -10 88 -28q21 -5 43 -5q54 0 141 63v-69zM531 178q-79 -54 -146 -54q-32 0 -105.5 23.5t-114.5 23.5q-55 0 -147 -65v69q89 57 158 57q35 0 84 -15l81 -25
q26 -8 49 -8q53 0 141 64v-70z" />
    <glyph glyph-name="dotlessj" unicode="&#x237;" horiz-adv-x="235" 
d="M254 423q0 -5 -11 -32l-133 -324q-78 -189 -163 -270q-57 -54 -125 -54q-80 0 -80 52q0 17 12 29.5t28 12.5q14 0 24 -9t10 -22q0 -6 -5 -17t-5 -15q0 -17 27 -17q38 0 63 28q34 38 98 197l164 408q2 3 3 6q0 8 -22 10q-34 2 -34 10t11 8q2 0 21 -2t51 -2q27 0 46 7
q8 3 12 3q8 0 8 -7z" />
    <glyph glyph-name="slong" unicode="&#x17f;" horiz-adv-x="269" 
d="M157 169q-94 -257 -183 -359q-36 -41 -66.5 -57.5t-72.5 -16.5q-85 0 -85 57q0 41 44 41q30 0 30 -25q0 -8 -10 -21q-6 -7 -6 -13q0 -22 30 -22q52 0 89 50q29 40 76 173l151 429h-23l-50 -1q-8 -1 -18 -1q-12 0 -12 8q0 15 25 18q2 0 36 -1l36 -1h14q60 143 98 195
q63 85 159 85q40 0 64.5 -17.5t24.5 -46.5q0 -39 -37 -39q-13 0 -22.5 8.5t-9.5 19.5q0 8 13 23q4 8 4 13q0 25 -42 25q-44 0 -71 -37.5t-68 -152.5z" />
    <glyph glyph-name="oopen" unicode="&#x254;" horiz-adv-x="356" 
d="M16 61q0 49 41 49q14 0 25 -10.5t11 -23.5q0 -24 -27 -24l-8 1q-7 3 -12 4q-8 0 -8 -11q0 -16 19.5 -28.5t43.5 -12.5q74 0 143 110q71 113 71 211q0 84 -76 84q-57 0 -115 -69q-10 -12 -16 -12q-5 0 -5 6q0 12 26 38q57 57 128 57q65 0 104.5 -37.5t39.5 -99.5
q0 -105 -112 -215q-92 -91 -190 -91q-37 0 -60 20.5t-23 53.5z" />
    <glyph glyph-name="schwa" unicode="&#x259;" horiz-adv-x="380" 
d="M14 55q0 54 58 89.5t147 35.5q32 0 71 -5q37 77 37 143q0 89 -79 89q-61 0 -119 -64q-13 -14 -17 -14q-5 0 -5 5q0 23 47 57q54 39 112 39q65 0 107 -38t42 -96q0 -112 -122 -217q-107 -92 -191 -92q-88 0 -88 68zM85 38q0 -31 31 -31q32 0 63 24q56 44 103 131
q-12 1 -27 1q-56 0 -109 -34q-61 -38 -61 -91z" />
    <glyph glyph-name="mturned" unicode="&#x26f;" horiz-adv-x="691" 
d="M-12 74q0 27 25 84l74 168q18 41 18 59q0 20 -23 20q-35 0 -68 -37q-12 -13 -19 -13q-6 0 -6 4q0 12 34 36q50 36 92 36q28 0 45.5 -14.5t17.5 -37.5q0 -25 -22 -76l-73 -169q-26 -60 -26 -78q0 -35 30 -35q47 0 101 67q35 43 89 170l60 141q14 33 21 33q5 0 8 -1
q15 -2 26 -2q6 0 16.5 1.5t15.5 1.5q7 0 7 -5q0 -3 -4 -11t-11 -23l-104 -247q-33 -78 -33 -102q0 -28 30 -28q39 0 96 65q17 20 53 70q13 18 37 75l75 176q12 28 18 28q5 0 8 -1q16 -2 19 -2q31 0 37 3q2 1 6 1q5 0 5 -5q-5 -11 -12 -24l-158 -367q-3 -5 -3 -7q0 -9 18 -9
q28 0 28 -10q0 -7 -10 -7q-9 0 -28 2t-28 2q-45 0 -57 -7l-6 -2q-6 0 -6 7q0 2 9 22q7 14 19 49l5 14q-9 -10 -38 -42q-45 -51 -110 -51q-41 0 -58 21t-19 74q-64 -94 -138 -94q-38 0 -60.5 21t-22.5 56z" />
    <glyph glyph-name="rturned" unicode="&#x279;" horiz-adv-x="337" 
d="M-15 46q0 20 13 34.5t30 14.5q16 0 16 -11l-2 -10q-2 -6 -2 -11q0 -24 24 -24q29 0 81 56t98 157l72 158q10 23 17 23q20 -3 31 -3q17 0 27 2h6q9 0 9 -4q0 -1 -3 -4l-5 -10l-169 -384q0 -8 13 -8q-1 0 4 0q4 1 13 1h10q15 0 15 -7q0 -6 -52 -8t-70 -9q-8 -2 -9 -2
q-6 0 -6 6q0 5 13 37l37 90q-92 -128 -162 -128q-49 0 -49 44z" />
    <glyph glyph-name="tturned" unicode="&#x287;" horiz-adv-x="255" 
d="M9 72q0 14 42 15l38 1h18l135 303q22 49 22 62q0 21 -31 21q-45 0 -80 -48q-8 -10 -12 -10q-8 0 -8 7q0 13 33 42q38 33 91 33q36 0 58.5 -18t22.5 -46q0 -18 -23 -67l-131 -281h41q17 0 17 -7q0 -13 -14 -13h-9q-5 1 -16 1q-14 0 -27 -1l-17 -43q-9 -22 -14 -22t-15.5 2
t-16.5 2q-11 0 -32 -10q-4 -2 -7 -2q-5 0 -5 4l11 24l22 48l-24 -1l-38 -2q-5 0 -12 -1t-8 -1q-11 0 -11 8z" />
    <glyph glyph-name="vturned" unicode="&#x28c;" horiz-adv-x="437" 
d="M32 44q0 74 28.5 153t77.5 140q75 93 154 93q43 0 71 -23.5t28 -60.5q0 -46 -39 -138l-58 -137q-12 -28 -12 -37q0 -21 24 -21q20 0 53.5 29.5t48.5 59.5q7 15 15 15q9 0 9 -7q0 -22 -55 -74q-52 -49 -102 -49q-31 0 -50 16t-19 42q0 28 19 72l56 130q28 65 28 110
q0 52 -43 52q-63 0 -137.5 -115t-74.5 -214q0 -33 14 -33q1 0 9.5 2.5t14.5 2.5q27 0 27 -25q0 -16 -12.5 -27.5t-29.5 -11.5q-45 0 -45 56z" />
    <glyph glyph-name="wturned" unicode="&#x28d;" horiz-adv-x="672" 
d="M35 46q0 139 83.5 262t176.5 123q32 0 56 -20.5t31 -55.5q3 -14 3 -48q59 123 149 123q40 0 66 -24t26 -61q0 -49 -28 -113l-60 -138q-15 -35 -15 -57q0 -27 23 -27q20 0 51 26.5t47 57.5q5 11 11 11t6 -8q0 -18 -39 -58q-52 -53 -107 -53q-73 0 -73 58q0 40 32 111
l59 130q23 51 23 85q0 42 -34 42q-83 0 -170 -210l-51 -123l-19 -57q-3 -12 -14 -13l-12 -1l-24 -3l-28 -5q-11 -2 -9 -2q-8 0 -8 6q0 4 4 8q5 10 11 25l94 235q22 55 22 90q0 49 -43 49q-72 0 -157 -141q-63 -105 -63 -203q0 -22 13 -22q2 0 10 3q2 1 8 1q29 0 29 -25
q0 -15 -12 -26t-29 -11q-39 0 -39 59z" />
    <glyph glyph-name="yturned" unicode="&#x28e;" horiz-adv-x="484" 
d="M-82 34q0 35 34 35q16 0 23 -19q2 -4 5 -4q10 0 43 54l103 168q6 11 141 216q70 107 145 168q44 36 87 36q45 0 45 -33q0 -17 -12 -28t-30 -11q-13 0 -16.5 4t-4.5 24q-1 15 -14 15q-18 0 -55.5 -32t-70.5 -75q-50 -65 -50 -113q0 -14 1 -25v-24l2 -288q0 -69 30 -69
q36 0 69 77q12 28 20 28t8 -9q0 -20 -30 -65q-45 -67 -106 -67q-45 0 -57 30q-9 23 -9 77v27l3 178q0 37 -2 74l-16 -24q-10 -18 -32 -54l-32 -49l-86 -142q-49 -80 -63.5 -97t-37.5 -17q-35 0 -35 34z" />
    <glyph glyph-name="kturned" unicode="&#x29e;" horiz-adv-x="493" 
d="M-11 -77q0 19 11.5 32t28.5 13q30 0 30 -29v-23q0 -25 17 -25q22 0 110 103q33 39 42 47t27 15l-20 3q-74 11 -74 67q0 39 12 107q5 28 5 45q0 20 -18 20q-27 0 -56.5 -34.5t-41.5 -80.5q-5 -18 -14 -18q-8 0 -8 9q0 18 30 72q41 74 117 74q71 0 71 -72q0 -34 -16 -106
q-5 -23 -5 -43q0 -23 26 -31q17 -5 36 -5q10 0 30 3l98 233l8 6l20 2l25 3l22 3q4 2 6 2q6 0 6 -6q0 -4 -5 -13q-1 -2 -12 -28l-245 -586q-3 -9 -10 -25l-7 -18q-3 -6 -3 -9q0 -12 19 -12q8 0 23.5 1.5t23.5 1.5q11 0 11 -6q0 -7 -6.5 -8t-44.5 -1q-87 -1 -108 -6
q-7 -4 -11 -4q-5 0 -5 5t20 52l144 338l22 55l-34 1q-22 0 -33.5 -9t-52.5 -57q-56 -66 -86 -88.5t-62 -22.5q-63 0 -63 53z" />
    <glyph glyph-name="zerowidthspace" unicode="&#x200b;" 
 />
    <glyph glyph-name="zerowidthnonjoiner" unicode="&#x200c;" 
 />
    <glyph glyph-name="zerowidthjoiner" unicode="&#x200d;" 
 />
    <glyph glyph-name="nonbreakinghyphen" unicode="&#x2011;" horiz-adv-x="263" 
d="M252 266l-10 -55h-202l8 55h204z" />
    <glyph glyph-name="commaturnedmod" unicode="&#x2bb;" horiz-adv-x="191" 
d="M295 710q0 -6 -19 -18q-49 -32 -67 -72q-9 -20 -9 -37q0 -24 12 -24q5 0 17 17q7 11 25 11q37 0 37 -38q0 -23 -16.5 -38.5t-41.5 -15.5q-28 0 -46 19.5t-18 49.5q0 64 67 122q9 8 29 18.5t25 10.5t5 -5z" />
    <glyph glyph-name="apostrophemod" unicode="&#x2bc;" horiz-adv-x="204" 
d="M325 636q0 -59 -64 -115q-39 -34 -58 -34q-4 0 -4 4q0 6 17 17q42 28 61 62q16 28 16 51t-13 23q-5 0 -16 -18q-8 -12 -26 -12q-14 0 -24.5 12t-10.5 29q0 23 17.5 38t42.5 15q26 0 44 -20.5t18 -51.5z" />
    <glyph glyph-name="secondtonechinese" unicode="&#x2ca;" horiz-adv-x="517" 
d="M388 511q0 -8 -6 -8q-4 0 -11 12l-38 65q-25 43 -58 95h87l23 -148q2 -7 3 -16z" />
    <glyph glyph-name="fourthtonechinese" unicode="&#x2cb;" horiz-adv-x="517" 
d="M546 672q0 -5 -20 -20l-143 -106q-55 -41 -61 -41q-3 0 -3 2t2 5l6 6l127 159h75q17 2 17 -5z" />
    <glyph glyph-name="ringhalfright" unicode="&#x2be;" horiz-adv-x="517" 
d="M454 529q25 0 49.5 19t34.5 46q9 26 -2 45t-35 19l4 9q3 10 4 9q34 0 48.5 -24.5t1.5 -59.5q-12 -34 -44.5 -58t-67.5 -24q-2 -3 2 7q2 5 5 12z" />
    <glyph glyph-name="ringhalfleft" unicode="&#x2bf;" horiz-adv-x="517" 
d="M580 656q-25 0 -49 -19t-34 -46q-10 -26 1 -45t35 -19l-3 -9q-3 -9 -4 -9q-34 0 -48.5 24.5t-2.5 59.5q13 34 45 58t67 24q3 3 2 0.5l-3 -7.5t-6 -12z" />
    <glyph glyph-name="macronlowmod" unicode="&#x2cd;" horiz-adv-x="517" 
d="M491 -114l-19 -51h-237l18 51h238z" />
    <glyph glyph-name="gravelowmod" unicode="&#x2ce;" horiz-adv-x="517" 
d="M388 -189q0 -8 -6 -8q-4 0 -11 12l-38 65q-25 43 -58 95h87l23 -148q2 -7 3 -16z" />
    <glyph glyph-name="acutelowmod" unicode="&#x2cf;" horiz-adv-x="517" 
d="M546 -28q0 -5 -20 -20l-143 -106q-55 -41 -61 -41q-3 0 -3 2t2 5l6 6l127 159h75q17 2 17 -5z" />
    <glyph glyph-name="gravecmb" unicode="&#x300;" 
d="M-174 511q0 -8 -6 -8q-4 0 -11 12l-38 65q-25 43 -58 95h87l23 -148q2 -7 3 -16z" />
    <glyph glyph-name="acutecmb" unicode="&#x301;" 
d="M-117 672q0 -5 -20 -20l-143 -106q-55 -41 -61 -41q-3 0 -3 2t2 5l6 6l127 159h75q17 2 17 -5z" />
    <glyph glyph-name="circumflexcmb" unicode="&#x302;" 
d="M-132 706q0 -3 -4 -22l-34 -163q-2 -15 -12 -15q-35 0 -35 12q0 2 2 11l13 61q2 8 6 21q3 6 3 11q0 6 -4 6q-2 -1 -5 -5q-7 -10 -68 -63q-40 -35 -49 -35q-11 0 -11 6q0 5 15 15q33 21 82 68.5t73 81.5q13 19 19 19q9 0 9 -9z" />
    <glyph glyph-name="tildecmb" unicode="&#x303;" 
d="M-83 606q0 -3 -3 -6l-10 -17q-40 -68 -94 -68q-19 0 -32.5 6.5t-56.5 35.5q-35 24 -56 24q-10 0 -19 -10t-9 -22q0 -8 5.5 -14.5t5.5 -8.5q0 -7 -8 -7q-7 0 -12.5 10t-5.5 21q0 25 31 47.5t65 22.5t89 -39q31 -22 47 -22q18 0 33.5 26t22.5 26t7 -5z" />
    <glyph glyph-name="macroncmb" unicode="&#x304;" 
d="M-103 586l-19 -51h-237l18 51h238z" />
    <glyph glyph-name="brevecmb" unicode="&#x306;" 
d="M-108 644q0 -17 -33 -58q-57 -71 -128 -71q-84 0 -84 94q0 38 12 38q4 0 4 -4v-3q-1 -4 -1 -11q0 -61 90 -61q53 0 86 26q10 8 38 45q8 10 12 10t4 -5z" />
    <glyph glyph-name="dotaccentcmb" unicode="&#x307;" 
d="M-182 565q0 -24 -15 -39t-39 -15q-44 0 -44 44q0 23 16.5 38.5t40.5 15.5q41 0 41 -44z" />
    <glyph glyph-name="dieresiscmb" unicode="&#x308;" 
d="M-98 567q0 -22 -16 -37.5t-38 -15.5q-43 0 -43 40q0 24 16 40.5t40 16.5q41 0 41 -44zM-267 564q0 -22 -16 -37t-39 -15q-42 0 -42 41q0 24 16.5 40t41.5 16q39 0 39 -45z" />
    <glyph glyph-name="ringcmb" unicode="&#x30a;" 
d="M-148 592q0 -34 -23.5 -58t-58.5 -24q-37 0 -60 23t-23 60q0 36 23.5 59.5t60.5 23.5q34 0 57.5 -24.5t23.5 -59.5zM-170 594q0 26 -18 45t-42 19t-43 -20t-19 -46t18.5 -44.5t43.5 -18.5t42.5 19t17.5 46z" />
    <glyph glyph-name="hungarumlautcmb" unicode="&#x30b;" 
d="M-41 657l-217 -150q-3 -3 -6 -3t-3 3t15 20l116 130h95zM-195 658l-217 -151q-2 -2 -5 -2q-3 1 -3 3q0 1 14 18l117 132h94z" />
    <glyph glyph-name="caroncmb" unicode="&#x30c;" 
d="M-130 694q0 -3 -5 -6q-23 -15 -83.5 -73t-85.5 -89q-13 -19 -18 -19q-9 0 -9 10q0 3 2 12l3 13l31 142q5 23 7 26.5t11 3.5q32 0 32 -11q0 -1 -3 -14l-19 -77l-2 -12q0 -5 4 -5q3 0 33 31q5 5 11 12l36 31q39 34 40 34q3 0 9 -3.5t6 -5.5z" />
    <glyph glyph-name="dblgravecmb" unicode="&#x30f;" 
d="M-99 511q0 -8 -6 -8q-4 0 -11 12l-38 65q-25 43 -58 95h87l23 -148q2 -7 3 -16zM-249 511q0 -8 -6 -8q-4 0 -11 12l-38 65q-25 43 -58 95h87l23 -148q2 -7 3 -16z" />
    <glyph glyph-name="breveinvertedcmb" unicode="&#x311;" 
d="M-353 520q0 17 33 58q57 71 128 71q84 0 84 -94q0 -38 -12 -38q-4 0 -4 4v3q1 4 1 11q0 61 -90 61q-53 0 -86 -26q-10 -8 -38 -45q-8 -10 -12 -10t-4 5z" />
    <glyph glyph-name="commaturnedabovecmb" unicode="&#x312;" 
d="M-168 710q0 -6 -19 -18q-49 -32 -67 -72q-9 -20 -9 -37q0 -24 12 -24q5 0 17 17q7 11 25 11q37 0 37 -38q0 -23 -16.5 -38.5t-41.5 -15.5q-28 0 -46 19.5t-18 49.5q0 64 67 122q9 8 29 18.5t25 10.5t5 -5z" />
    <glyph glyph-name="commaabovecmb" unicode="&#x313;" 
d="M-168 636q0 -59 -64 -115q-39 -34 -58 -34q-4 0 -4 4q0 6 17 17q42 28 61 62q16 28 16 51t-13 23q-5 0 -16 -18q-8 -12 -26 -12q-14 0 -24.5 12t-10.5 29q0 23 17.5 38t42.5 15q26 0 44 -20.5t18 -51.5z" />
    <glyph glyph-name="gravebelowcmb" unicode="&#x316;" 
d="M-174 -189q0 -8 -6 -8q-4 0 -11 12l-38 65q-25 43 -58 95h87l23 -148q2 -7 3 -16z" />
    <glyph glyph-name="acutebelowcmb" unicode="&#x317;" 
d="M-117 -28q0 -5 -20 -20l-143 -106q-55 -41 -61 -41q-3 0 -3 2t2 5l6 6l127 159h75q17 2 17 -5z" />
    <glyph glyph-name="ringhalfleftbelowcmb" unicode="&#x31c;" 
d="M-187 -44q-25 0 -49.5 -19t-34.5 -46q-9 -26 2 -45t35 -19l-3 -9q-4 -10 -5 -9q-34 0 -48.5 24.5t-1.5 59.5q12 34 44.5 58t67.5 24q2 3 -2 -7q-1 -5 -5 -12z" />
    <glyph glyph-name="dotbelowcmb" unicode="&#x323;" 
d="M-182 -135q0 -24 -15 -39t-39 -15q-44 0 -44 44q0 23 16.5 38.5t40.5 15.5q41 0 41 -44z" />
    <glyph glyph-name="dieresisbelowcmb" unicode="&#x324;" 
d="M-98 -133q0 -22 -16 -37.5t-38 -15.5q-43 0 -43 40q0 24 16 40.5t40 16.5q41 0 41 -44zM-267 -136q0 -22 -16 -37t-39 -15q-42 0 -42 41q0 24 16.5 40t41.5 16q39 0 39 -45z" />
    <glyph glyph-name="ringbelowcmb" unicode="&#x325;" 
d="M-148 -108q0 -34 -23.5 -58t-58.5 -24q-37 0 -60 23t-23 60q0 36 23.5 59.5t60.5 23.5q34 0 57.5 -24.5t23.5 -59.5zM-170 -106q0 26 -18 45t-42 19t-43 -20t-19 -46t18.5 -44.5t43.5 -18.5t42.5 19t17.5 46z" />
    <glyph glyph-name="commaaccent" unicode="&#x326;" 
d="M-134 -51q0 -47 -52 -92q-31 -27 -46 -27q-3 0 -3 3q0 5 13 13q34 23 49 50q13 22 13 41q0 18 -10 18q-4 0 -13 -14q-7 -10 -21 -10q-11 0 -19.5 9.5t-8.5 23.5q0 18 14 30t34 12q21 0 35.5 -16t14.5 -41z" />
    <glyph glyph-name="cedillacmb" unicode="&#x327;" 
d="M-139 -86q0 -41 -35 -70t-84 -29q-25 0 -45 8.5t-20 19.5q0 6 5 6q-3 0 22 -13q10 -5 24 -5q35 0 59.5 28t24.5 68q0 29 -30 29h-7l16 44h15l-13 -35q34 -2 47 -9q21 -12 21 -42z" />
    <glyph glyph-name="ogonekcmb" unicode="&#x328;" 
d="M-151 -150q0 -10 -36 -24.5t-60 -14.5q-28 0 -46 15t-18 39q0 45 52 87q24 20 89 48h11q-40 -24 -65.5 -58.5t-25.5 -65.5q0 -43 36 -43q17 0 36.5 10.5t21.5 10.5q5 0 5 -4z" />
    <glyph glyph-name="caronbelowcmb" unicode="&#x32c;" 
d="M-130 -6q0 -3 -5 -6q-23 -15 -83.5 -73t-85.5 -89q-13 -19 -18 -19q-9 0 -9 10q0 3 2 12l3 13l31 142q5 23 7 26.5t11 3.5q32 0 32 -11q0 -1 -3 -14l-19 -77l-2 -12q0 -5 4 -5q3 0 33 31q5 5 11 12l36 31q39 34 40 34q3 0 9 -3.5t6 -5.5z" />
    <glyph glyph-name="circumflexbelowcmb" unicode="&#x32d;" 
d="M-132 6q0 -3 -4 -22l-34 -163q-2 -15 -12 -15q-35 0 -35 12q0 2 2 11l13 61q2 8 6 21q3 6 3 11q0 6 -4 6q-2 -1 -5 -5q-7 -10 -68 -63q-40 -35 -49 -35q-11 0 -11 6q0 5 15 15q33 21 82 68.5t73 81.5q13 19 19 19q9 0 9 -9z" />
    <glyph glyph-name="brevebelowcmb" unicode="&#x32e;" 
d="M-108 -56q0 -17 -33 -58q-57 -71 -128 -71q-84 0 -84 94q0 38 12 38q4 0 4 -4v-3q-1 -4 -1 -11q0 -61 90 -61q53 0 86 26q10 8 38 45q8 10 12 10t4 -5z" />
    <glyph glyph-name="breveinvertedbelowcmb" unicode="&#x32f;" 
d="M-353 -180q0 17 33 58q57 71 128 71q84 0 84 -94q0 -38 -12 -38q-4 0 -4 4v3q1 4 1 11q0 61 -90 61q-53 0 -86 -26q-10 -8 -38 -45q-8 -10 -12 -10t-4 5z" />
    <glyph glyph-name="tildebelowcmb" unicode="&#x330;" 
d="M-83 -94q0 -3 -3 -6l-10 -17q-40 -68 -94 -68q-19 0 -32.5 6.5t-56.5 35.5q-35 24 -56 24q-10 0 -19 -10t-9 -22q0 -8 5.5 -14.5t5.5 -8.5q0 -7 -8 -7q-7 0 -12.5 10t-5.5 21q0 25 31 47.5t65 22.5t89 -39q31 -22 47 -22q18 0 33.5 26t22.5 26t7 -5z" />
    <glyph glyph-name="macronbelowcmb" unicode="&#x331;" 
d="M-103 -114l-19 -51h-237l18 51h238z" />
    <glyph glyph-name="soliduslongoverlaycmb" unicode="&#x338;" 
d="M41 682q0 -6 -9 -18l-488 -660q-15 -20 -20 -20q-8 0 -17 7t-9 13q0 5 10 19l487 659q13 17 17 17q8 0 18.5 -6t10.5 -11z" />
    <glyph glyph-name="ringhalfrightbelowcmb" unicode="&#x339;" 
d="M-313 -171q25 0 49.5 19t34.5 46q9 26 -2 45t-35 19l3 9q3 9 4 9q34 0 49 -24.5t2 -59.5q-13 -34 -45 -58t-67 -24q-3 -3 -1.5 -0.5t3.5 7.5q1 5 5 12z" />
    <glyph glyph-name="uni0351" unicode="&#x351;" 
d="M-60 656q-25 0 -49.5 -19t-33.5 -46q-10 -26 1 -45t35 -19l-3 -9q-3 -9 -4 -9q-34 0 -49 24.5t-2 59.5q13 34 45 58t67 24q3 4 -1 -7q-2 -5 -6 -12z" />
    <glyph glyph-name="uni0357" unicode="&#x357;" 
d="M-186 529q25 0 49.5 19t34.5 46q9 26 -2 45t-35 19l4 9q3 10 4 9q34 0 48.5 -24.5t1.5 -59.5q-12 -34 -44.5 -58t-67.5 -24q-2 -2 -1 0t3 7t5 12z" />
    <glyph glyph-name="Deltagreek" unicode="&#x394;" horiz-adv-x="612" 
d="M595 0h-574l276 672h22zM471 32l-198 491l-201 -491h399z" />
    <glyph glyph-name="Omegagreek" unicode="&#x3a9;" horiz-adv-x="768" 
d="M718 408q0 -108 -72 -177q-65 -61 -176 -82v-59h123q50 0 67 17.5t21 68.5h23l-10 -176h-252v170q80 16 122 88q36 63 36 150q0 103 -56 170q-59 71 -160 71q-102 0 -161 -71q-55 -66 -55 -170q0 -88 36 -150q41 -72 122 -88v-170h-252l-10 176h23q3 -50 21 -68t67 -18
h123v59q-112 21 -176 82q-72 69 -72 177q0 131 105 204q91 63 229 63t229 -63q105 -73 105 -204z" />
    <glyph glyph-name="mugreek" unicode="&#x3bc;" horiz-adv-x="495" 
d="M504 418q0 -1 -8 -21l-113 -261q-33 -76 -33 -98q0 -27 26 -27q39 0 81 52q11 13 15 13q6 0 6 -6q0 -25 -58 -60q-35 -21 -73 -21q-29 0 -50.5 16t-21.5 37q0 15 8 36q6 18 13 35q-66 -77 -101 -100t-84 -23q-42 0 -68 17q-11 -36 -15 -60l-21 -116q-16 -91 -69 -91
q-44 0 -44 39q0 22 33 94l236 515q3 4 3 7q0 8 -24 8q-32 0 -32 11q0 7 8 7q6 0 18 -2t18 -2q59 0 86 9q6 2 8 2q5 0 5 -5q0 -9 -20.5 -51.5t-36.5 -87.5q-7 -19 -31 -73l-41 -92q-25 -56 -25 -81q0 -28 37 -28q39 0 102 64q70 71 116 181l64 152q5 12 10 12q1 0 21 -2h9
q7 0 21 2.5t20 2.5q5 0 5 -4z" />
    <glyph glyph-name="ohminverted" unicode="&#x2127;" horiz-adv-x="768" 
d="M50 267q0 108 72 177q65 61 176 82v59h-123q-50 0 -67 -17.5t-21 -68.5h-23l10 176h252v-170q-80 -16 -122 -88q-36 -63 -36 -150q0 -103 56 -170q59 -71 160 -71q102 0 161 71q55 66 55 170q0 88 -36 150q-41 72 -122 88v170h252l10 -176h-23q-3 50 -21 68t-67 18h-123
v-59q112 -21 176 -82q72 -69 72 -177q0 -131 -105 -204q-91 -63 -229 -63t-229 63q-105 73 -105 204z" />
    <glyph glyph-name="dcroat" unicode="&#x111;" horiz-adv-x="507" 
d="M642 586l-10 -55h-75l-168 -409q-26 -63 -26 -78q0 -28 32 -28q48 0 82 53q11 17 15 17q7 0 7 -8q0 -17 -34 -48q-42 -38 -101 -38q-75 0 -75 64q0 13 2 29q-37 -53 -71 -75.5t-80 -22.5q-56 0 -91.5 35.5t-35.5 92.5q0 118 112 223q101 95 193 95q64 0 85 -61l6 12l7 15
l55 132h-141l8 55h156l36 87q4 5 4 9q0 7 -5.5 8.5t-37.5 3.5q-19 1 -19 7t11 6h12q13 0 37.5 -1t35.5 -1q38 0 49 4q6 2 8 2q6 0 6 -6q-1 -3 -3 -7q-4 -8 -11 -23l-37 -89h62zM390 352q0 23 -21 41t-47 18q-74 0 -151 -124q-73 -117 -73 -198q0 -73 66 -73q58 0 114 81
q40 57 69 133l23 59q20 51 20 63z" />
    <glyph glyph-name="Euro" unicode="&#x20ac;" horiz-adv-x="626" 
d="M467 367h-220l-7 -20q-8 -22 -14 -42h169l-14 -36h-167q-29 -112 -12 -181q19 -80 100 -80q41 0 85 25.5t78 69.5q40 51 70 111q12 24 19 24q8 0 3 -15q0 2 -11 -27q-24 -58 -44 -112q-2 -6 -7.5 -24.5t-14.5 -44.5l-3 -9q-5 -13 -12 -13q-6 0 -6 15q1 33 -6 43
q-81 -63 -162 -63q-117 0 -158 102q-28 75 -7 179h-110l14 36h106q6 21 15 44l6 18h-105l13 36h107q54 121 143 202q107 100 219 100q41 0 62.5 -8.5t47.5 -34.5q13 -13 22 -13q7 0 20 16q20 28 26 28q7 0 4 -8q-2 -4 -7 -13q-26 -48 -74 -180q-7 -19 -10.5 -22t-7.5 -3
q-8 0 -4 19q20 80 15 119q-11 80 -95 80q-64 0 -122 -54q-88 -82 -150 -228h219z" />
    <glyph glyph-name="centigrade" unicode="&#x2103;" horiz-adv-x="877" 
d="M456 607q0 -41 -32.5 -73t-74.5 -32t-72 29.5t-30 71.5q0 44 32 73.5t78 29.5q41 0 70 -29t29 -70zM422 611q0 24 -19 46q-15 18 -48 18q-31 0 -52 -21.5t-21 -52.5q0 -29 18 -48t46 -19q30 0 53 23t23 54zM997 650q0 -13 -15 -42q-46 -89 -55 -125q-4 -16 -12 -16t-8 10
q0 3 7 25q6 19 6 49q0 62 -32 98t-87 36q-130 0 -219 -141q-98 -155 -98 -329q0 -184 134 -184q48 0 90 24q76 44 110 104q13 23 22 23q6 0 6 -8q0 -23 -56 -83q-98 -104 -225 -104q-89 0 -139.5 56.5t-50.5 156.5q0 188 134.5 346t294.5 158q44 0 74 -15q21 -11 62 -46
q10 -9 20 -9q12 0 23 19q4 4 8 4q6 0 6 -7z" />
    <glyph glyph-name="fahrenheit" unicode="&#x2109;" horiz-adv-x="826" 
d="M456 607q0 -41 -32.5 -73t-74.5 -32t-72 29.5t-30 71.5q0 44 32 73.5t78 29.5q41 0 70 -29t29 -70zM422 611q0 24 -19 46q-15 18 -48 18q-31 0 -52 -21.5t-21 -52.5q0 -29 18 -48t46 -19q30 0 53 23t23 54zM979 689q0 -19 -33 -120q-5 -10 -10 -32q-7 -27 -14 -27
q-6 0 -6 8q0 12 3 23q8 29 8 55q0 56 -34 69q-14 5 -26 6q-15 1 -77 2q-15 0 -26 1h-16h-26q-9 0 -13 -4t-13 -26l-115 -279q10 -2 21 -2q67 0 85 5q41 12 75 84q20 42 27 42t7 -5q0 -10 -33 -95q-12 -31 -31 -86q-3 -7 -13 -44q-14 -54 -24 -54q-7 0 -7 9q0 11 6 29
q5 22 5 38q0 59 -61 59q-42 0 -63 -3l-104 -267q-19 -49 -19 -53q0 -8 17 -8q8 0 78 3q11 0 11 -9q0 -10 -15 -10l-80 2l-126 -1l-53 1q-26 -2 -29 -2q-11 0 -11 8q0 10 14 10q18 0 29 -1q5 -1 10 -1q44 0 55 11q5 5 26 57l209 528q21 53 21 58q0 9 -12 9l-60 -1
q-15 0 -15 11q0 9 12 9q9 0 16 -1l63 -2l217 -1q13 0 49 1q31 2 49 1l30 -1q6 0 13 1h4q5 0 5 -5z" />
    <glyph glyph-name="kelvin" unicode="&#x212a;" horiz-adv-x="621" 
d="M770 684q0 -9 -30 -9q-33 0 -66 -22q-24 -16 -128 -101l-76 -62q-24 -20 -49 -36q-43 -28 -43 -38l3 -9l5 -15l100 -312q14 -45 23.5 -54t40.5 -9h8q9 0 20 1h10q11 0 11 -8q0 -12 -37 -12q2 0 -35.5 1t-69.5 1h-29l-78 -1q-25 0 -25 9q0 10 14 10q12 0 21 -1h15
q24 0 24 17q-3 12 -13 48l-77 255q-12 41 -21 41q-5 0 -16 -29l-94 -239q-26 -66 -26 -75q0 -19 29 -19h9q8 0 18 1h11q28 0 28 -8q0 -9 -19 -9l-70 1l-197 -3q-15 0 -15 9q0 10 14 10q6 0 18 -1t18 -1q32 0 42 9q5 4 11 16q10 19 37 87l182 457q18 45 28 75q0 20 -43.5 19
t-43.5 9q0 8 40 8l100 -1l94 1q38 0 38 -8t-30 -9q-25 -1 -37 -4q-21 -6 -27 -22l-21 -57l-64 -171q-4 -10 -8 -22q0 -6 5 -6q3 0 8 5q8 9 22 15l70 49l33 26l87 71q69 56 85 73q11 12 11 25q0 17 -31 17q-15 0 -23 -1h-16q-12 0 -12 7q0 12 19 12h14q4 0 60 -1t111 -1
q33 0 33 -9z" />
    <glyph glyph-name="angstrom" unicode="&#x212b;" horiz-adv-x="627" 
d="M655 824q0 -34 -23.5 -58t-58.5 -24q-37 0 -60 23t-23 59t23.5 59.5t60.5 23.5q34 0 57.5 -24t23.5 -59zM593 9q0 -10 -34 -11q37 1 -39 2l-76 1l-132 -1q-7 -1 -16 -1q-17 0 -17 12q0 9 11 9t22 -1h11q27 0 48 9q14 6 21 56l20 135q1 3 1 8q0 7 -36 7h-89q-47 -1 -51 -1
h-16q-6 -6 -26 -30l-93 -128q-19 -26 -19 -36q0 -21 55 -21q6 0 18 1.5t18 1.5q14 0 14 -10q0 -11 -27 -11l-55 1l-91 -2q-65 -1 -82 1.5t-17 11.5q0 8 10 8q7 0 20 -2t20 -2q34 0 57 13q16 9 65 74l289 380q26 34 79 101l88 114q10 13 17 13q10 0 10 -14q0 -23 -7 -55
q-13 -60 -28 -181l-44 -356q-6 -49 -6 -54q0 -29 36 -31l59 -3q12 -1 12 -8zM633 825q0 26 -18 45t-42 19q-25 0 -43.5 -19.5t-18.5 -45.5t18.5 -44.5t43.5 -18.5t42.5 19t17.5 45zM460 536q0 9 -4 9q-6 0 -11 -12.5t-9 -15.5q-6 -7 -32 -42l-107 -144q-18 -24 -47 -62
q-5 -4 -6 -7q0 -8 14 -7l20 1l50 -1q74 -1 90 7l31 205q3 20 9 55q2 10 2 14z" />
    <glyph glyph-name="Oneroman" unicode="&#x2160;" horiz-adv-x="327" 
d="M488 686q0 -9 -12 -9q-6 0 -10 1h-16q-43 0 -53 -16q-15 -23 -44 -97l-201 -515q-2 -6 -5 -14q0 -18 40 -23q13 0 31 -1q13 -1 13 -7q0 -7 -14 -7q-72 1 -207 1q-47 0 -54.5 1t-7.5 6q0 7 27 7q37 1 49 5q19 7 28 22q9 22 21 52l195 490q29 73 29 80q0 17 -31 17h-40
q-11 0 -11 8q0 7 11 7h9q6 -1 48 -1l149 1q6 -1 10 -1l37 1q9 0 9 -8z" />
    <glyph glyph-name="Tworoman" unicode="&#x2161;" horiz-adv-x="654" 
d="M488 686q0 -9 -12 -9q-6 0 -10 1h-16q-43 0 -53 -16q-15 -23 -44 -97l-201 -515q-2 -6 -5 -14q0 -18 40 -23q13 0 31 -1q13 -1 13 -7q0 -7 -14 -7q-72 1 -207 1q-47 0 -54.5 1t-7.5 6q0 7 27 7q37 1 49 5q19 7 28 22q9 22 21 52l195 490q29 73 29 80q0 17 -31 17h-40
q-11 0 -11 8q0 7 11 7h9q6 -1 48 -1l149 1q6 -1 10 -1l37 1q9 0 9 -8zM815 686q0 -9 -12 -9q-6 0 -10 1h-16q-43 0 -53 -16q-15 -23 -44 -97l-201 -515q-2 -6 -5 -14q0 -18 40 -23q13 0 31 -1q13 -1 13 -7q0 -7 -14 -7q-72 1 -207 1q-47 0 -54.5 1t-7.5 6q0 7 27 7
q37 1 49 5q19 7 28 22q9 22 21 52l195 490q29 73 29 80q0 17 -31 17h-40q-11 0 -11 8q0 7 11 7h9q6 -1 48 -1l149 1q6 -1 10 -1l37 1q9 0 9 -8z" />
    <glyph glyph-name="Threeroman" unicode="&#x2162;" horiz-adv-x="981" 
d="M488 686q0 -9 -12 -9q-6 0 -10 1h-16q-43 0 -53 -16q-15 -23 -44 -97l-201 -515q-2 -6 -5 -14q0 -18 40 -23q13 0 31 -1q13 -1 13 -7q0 -7 -14 -7q-72 1 -207 1q-47 0 -54.5 1t-7.5 6q0 7 27 7q37 1 49 5q19 7 28 22q9 22 21 52l195 490q29 73 29 80q0 17 -31 17h-40
q-11 0 -11 8q0 7 11 7h9q6 -1 48 -1l149 1q6 -1 10 -1l37 1q9 0 9 -8zM815 686q0 -9 -12 -9q-6 0 -10 1h-16q-43 0 -53 -16q-15 -23 -44 -97l-201 -515q-2 -6 -5 -14q0 -18 40 -23q13 0 31 -1q13 -1 13 -7q0 -7 -14 -7q-72 1 -207 1q-47 0 -54.5 1t-7.5 6q0 7 27 7
q37 1 49 5q19 7 28 22q9 22 21 52l195 490q29 73 29 80q0 17 -31 17h-40q-11 0 -11 8q0 7 11 7h9q6 -1 48 -1l149 1q6 -1 10 -1l37 1q9 0 9 -8zM1142 686q0 -9 -12 -9q-6 0 -10 1h-16q-43 0 -53 -16q-15 -23 -44 -97l-201 -515q-2 -6 -5 -14q0 -18 40 -23q13 0 31 -1
q13 -1 13 -7q0 -7 -14 -7q-72 1 -207 1q-47 0 -54.5 1t-7.5 6q0 7 27 7q37 1 49 5q19 7 28 22q9 22 21 52l195 490q29 73 29 80q0 17 -31 17h-40q-11 0 -11 8q0 7 11 7h9q6 -1 48 -1l149 1q6 -1 10 -1l37 1q9 0 9 -8z" />
    <glyph glyph-name="Fourroman" unicode="&#x2163;" horiz-adv-x="906" 
d="M488 686q0 -9 -12 -9q-6 0 -10 1h-16q-43 0 -53 -16q-15 -23 -44 -97l-201 -515q-2 -6 -5 -14q0 -18 40 -23q13 0 31 -1q13 -1 13 -7q0 -7 -14 -7q-72 1 -207 1q-47 0 -54.5 1t-7.5 6q0 7 27 7q37 1 49 5q19 7 28 22q9 22 21 52l195 490q29 73 29 80q0 17 -31 17h-40
q-11 0 -11 8q0 7 11 7h9q6 -1 48 -1l149 1q6 -1 10 -1l37 1q9 0 9 -8zM1104 684q0 -8 -34 -10q-53 -3 -72 -26q-6 -7 -56 -74l-281 -382q-30 -41 -58 -81q-86 -124 -89 -124q-4 0 -4 9q0 7 1 19q2 16 2 20l5 87l25 473q2 38 2 58q0 15 -17 19t-38 4q-24 0 -24 7q0 9 24 9
q17 0 36 -1q37 -2 80 -2q26 0 82 1t63 1h17q8 0 8 -5q0 -11 -29 -14h-36q-39 -1 -48.5 -3t-14.5 -11q-3 -5 -4 -19l-2 -35l-30 -438l301 404q51 68 51 86q0 15 -29 19h-42q-9 0 -9 5q0 7 14 8t89 1q117 0 117 -5z" />
    <glyph glyph-name="Fiveroman" unicode="&#x2164;" horiz-adv-x="579" 
d="M777 684q0 -8 -34 -10q-53 -3 -72 -26q-6 -7 -56 -74l-281 -382q-30 -41 -58 -81q-86 -124 -89 -124q-4 0 -4 9q0 7 1 19q2 16 2 20l5 87l25 473q2 38 2 58q0 15 -17 19t-38 4q-24 0 -24 7q0 9 24 9q17 0 36 -1q37 -2 80 -2q26 0 82 1t63 1h17q8 0 8 -5q0 -11 -29 -14
h-36q-39 -1 -48.5 -3t-14.5 -11q-3 -5 -4 -19l-2 -35l-30 -438l301 404q51 68 51 86q0 15 -29 19h-42q-9 0 -9 5q0 7 14 8t89 1q117 0 117 -5z" />
    <glyph glyph-name="Sixroman" unicode="&#x2165;" horiz-adv-x="906" 
d="M777 684q0 -8 -34 -10q-53 -3 -72 -26q-6 -7 -56 -74l-281 -382q-30 -41 -58 -81q-86 -124 -89 -124q-4 0 -4 9q0 7 1 19q2 16 2 20l5 87l25 473q2 38 2 58q0 15 -17 19t-38 4q-24 0 -24 7q0 9 24 9q17 0 36 -1q37 -2 80 -2q26 0 82 1t63 1h17q8 0 8 -5q0 -11 -29 -14
h-36q-39 -1 -48.5 -3t-14.5 -11q-3 -5 -4 -19l-2 -35l-30 -438l301 404q51 68 51 86q0 15 -29 19h-42q-9 0 -9 5q0 7 14 8t89 1q117 0 117 -5zM1067 686q0 -9 -12 -9q-6 0 -10 1h-16q-43 0 -53 -16q-15 -23 -44 -97l-201 -515q-2 -6 -5 -14q0 -18 40 -23q13 0 31 -1
q13 -1 13 -7q0 -7 -14 -7q-72 1 -207 1q-47 0 -54.5 1t-7.5 6q0 7 27 7q37 1 49 5q19 7 28 22q9 22 21 52l195 490q29 73 29 80q0 17 -31 17h-40q-11 0 -11 8q0 7 11 7h9q6 -1 48 -1l149 1q6 -1 10 -1l37 1q9 0 9 -8z" />
    <glyph glyph-name="Sevenroman" unicode="&#x2166;" horiz-adv-x="1233" 
d="M777 684q0 -8 -34 -10q-53 -3 -72 -26q-6 -7 -56 -74l-281 -382q-30 -41 -58 -81q-86 -124 -89 -124q-4 0 -4 9q0 7 1 19q2 16 2 20l5 87l25 473q2 38 2 58q0 15 -17 19t-38 4q-24 0 -24 7q0 9 24 9q17 0 36 -1q37 -2 80 -2q26 0 82 1t63 1h17q8 0 8 -5q0 -11 -29 -14
h-36q-39 -1 -48.5 -3t-14.5 -11q-3 -5 -4 -19l-2 -35l-30 -438l301 404q51 68 51 86q0 15 -29 19h-42q-9 0 -9 5q0 7 14 8t89 1q117 0 117 -5zM1067 686q0 -9 -12 -9q-6 0 -10 1h-16q-43 0 -53 -16q-15 -23 -44 -97l-201 -515q-2 -6 -5 -14q0 -18 40 -23q13 0 31 -1
q13 -1 13 -7q0 -7 -14 -7q-72 1 -207 1q-47 0 -54.5 1t-7.5 6q0 7 27 7q37 1 49 5q19 7 28 22q9 22 21 52l195 490q29 73 29 80q0 17 -31 17h-40q-11 0 -11 8q0 7 11 7h9q6 -1 48 -1l149 1q6 -1 10 -1l37 1q9 0 9 -8zM1394 686q0 -9 -12 -9q-6 0 -10 1h-16q-43 0 -53 -16
q-15 -23 -44 -97l-201 -515q-2 -6 -5 -14q0 -18 40 -23q13 0 31 -1q13 -1 13 -7q0 -7 -14 -7q-72 1 -207 1q-47 0 -54.5 1t-7.5 6q0 7 27 7q37 1 49 5q19 7 28 22q9 22 21 52l195 490q29 73 29 80q0 17 -31 17h-40q-11 0 -11 8q0 7 11 7h9q6 -1 48 -1l149 1q6 -1 10 -1l37 1
q9 0 9 -8z" />
    <glyph glyph-name="Eightroman" unicode="&#x2167;" horiz-adv-x="1560" 
d="M777 684q0 -8 -34 -10q-53 -3 -72 -26q-6 -7 -56 -74l-281 -382q-30 -41 -58 -81q-86 -124 -89 -124q-4 0 -4 9q0 7 1 19q2 16 2 20l5 87l25 473q2 38 2 58q0 15 -17 19t-38 4q-24 0 -24 7q0 9 24 9q17 0 36 -1q37 -2 80 -2q26 0 82 1t63 1h17q8 0 8 -5q0 -11 -29 -14
h-36q-39 -1 -48.5 -3t-14.5 -11q-3 -5 -4 -19l-2 -35l-30 -438l301 404q51 68 51 86q0 15 -29 19h-42q-9 0 -9 5q0 7 14 8t89 1q117 0 117 -5zM1067 686q0 -9 -12 -9q-6 0 -10 1h-16q-43 0 -53 -16q-15 -23 -44 -97l-201 -515q-2 -6 -5 -14q0 -18 40 -23q13 0 31 -1
q13 -1 13 -7q0 -7 -14 -7q-72 1 -207 1q-47 0 -54.5 1t-7.5 6q0 7 27 7q37 1 49 5q19 7 28 22q9 22 21 52l195 490q29 73 29 80q0 17 -31 17h-40q-11 0 -11 8q0 7 11 7h9q6 -1 48 -1l149 1q6 -1 10 -1l37 1q9 0 9 -8zM1394 686q0 -9 -12 -9q-6 0 -10 1h-16q-43 0 -53 -16
q-15 -23 -44 -97l-201 -515q-2 -6 -5 -14q0 -18 40 -23q13 0 31 -1q13 -1 13 -7q0 -7 -14 -7q-72 1 -207 1q-47 0 -54.5 1t-7.5 6q0 7 27 7q37 1 49 5q19 7 28 22q9 22 21 52l195 490q29 73 29 80q0 17 -31 17h-40q-11 0 -11 8q0 7 11 7h9q6 -1 48 -1l149 1q6 -1 10 -1l37 1
q9 0 9 -8zM1721 686q0 -9 -12 -9q-6 0 -10 1h-16q-43 0 -53 -16q-15 -23 -44 -97l-201 -515q-2 -6 -5 -14q0 -18 40 -23q13 0 31 -1q13 -1 13 -7q0 -7 -14 -7q-72 1 -207 1q-47 0 -54.5 1t-7.5 6q0 7 27 7q37 1 49 5q19 7 28 22q9 22 21 52l195 490q29 73 29 80q0 17 -31 17
h-40q-11 0 -11 8q0 7 11 7h9q6 -1 48 -1l149 1q6 -1 10 -1l37 1q9 0 9 -8z" />
    <glyph glyph-name="Nineroman" unicode="&#x2168;" horiz-adv-x="951" 
d="M488 686q0 -9 -12 -9q-6 0 -10 1h-16q-43 0 -53 -16q-15 -23 -44 -97l-201 -515q-2 -6 -5 -14q0 -18 40 -23q13 0 31 -1q13 -1 13 -7q0 -7 -14 -7q-72 1 -207 1q-47 0 -54.5 1t-7.5 6q0 7 27 7q37 1 49 5q19 7 28 22q9 22 21 52l195 490q29 73 29 80q0 17 -31 17h-40
q-11 0 -11 8q0 7 11 7h9q6 -1 48 -1l149 1q6 -1 10 -1l37 1q9 0 9 -8zM1133 685q0 -10 -33 -10q-40 1 -63 -11q-19 -10 -50 -42q-15 -15 -44 -45l-191 -185l26 -238q11 -100 25 -120.5t67 -19.5q27 1 27 -6q0 -10 -18 -10q-10 0 -16 1q-28 2 -113 2q-16 0 -82.5 -1t-72.5 -1
h-13q-16 0 -16 7t11.5 8t75.5 1q26 0 33 12v0q6 9 6 33q0 35 -5 82l-19 179l-44 -49q-12 -13 -38 -42l-127 -129q-43 -44 -50.5 -53t-7.5 -18q0 -11 12 -13t67 -2q6 0 6 -4q0 -13 -25 -13h-15q-22 0 -56.5 2t-43.5 2q-14 0 -42 -2t-42 -2q-11 0 -11 6q0 12 21 12q61 1 96 34
q18 15 52 46q6 5 51 53l194 204l-29 219q-9 71 -20.5 87t-51.5 16h-9q-10 -1 -19 -1t-9 6q0 11 21 11q12 0 37 -1q50 -2 111 -2q18 0 70.5 1.5t57.5 1.5h5q9 0 9 -6q0 -12 -21 -12h-23q-37 0 -48 -3q-24 -7 -24 -34q0 -14 5 -58l18 -159l174 170l28 28q2 2 13 14q8 10 17 18
t9 13q0 13 -52 13h-12q-10 0 -10 7q0 9 14 9q19 0 56.5 -1.5t56.5 -1.5q12 0 34.5 1.5t42.5 1.5h6q11 0 11 -6z" />
    <glyph glyph-name="Tenroman" unicode="&#x2169;" horiz-adv-x="624" 
d="M806 685q0 -10 -33 -10q-40 1 -63 -11q-19 -10 -50 -42q-15 -15 -44 -45l-191 -185l26 -238q11 -100 25 -120.5t67 -19.5q27 1 27 -6q0 -10 -18 -10q-10 0 -16 1q-28 2 -113 2q-16 0 -82.5 -1t-72.5 -1h-13q-16 0 -16 7t11.5 8t75.5 1q26 0 33 12v0q6 9 6 33q0 35 -5 82
l-19 179l-44 -49q-12 -13 -38 -42l-127 -129q-43 -44 -50.5 -53t-7.5 -18q0 -11 12 -13t67 -2q6 0 6 -4q0 -13 -25 -13h-15q-22 0 -56.5 2t-43.5 2q-14 0 -42 -2t-42 -2q-11 0 -11 6q0 12 21 12q61 1 96 34q18 15 52 46q6 5 51 53l194 204l-29 219q-9 71 -20.5 87t-51.5 16
h-9q-10 -1 -19 -1t-9 6q0 11 21 11q12 0 37 -1q50 -2 111 -2q18 0 70.5 1.5t57.5 1.5h5q9 0 9 -6q0 -12 -21 -12h-23q-37 0 -48 -3q-24 -7 -24 -34q0 -14 5 -58l18 -159l174 170l28 28q2 2 13 14q8 10 17 18t9 13q0 13 -52 13h-12q-10 0 -10 7q0 9 14 9q19 0 56.5 -1.5
t56.5 -1.5q12 0 34.5 1.5t42.5 1.5h6q11 0 11 -6z" />
    <glyph glyph-name="Elevenroman" unicode="&#x216a;" horiz-adv-x="951" 
d="M806 685q0 -10 -33 -10q-40 1 -63 -11q-19 -10 -50 -42q-15 -15 -44 -45l-191 -185l26 -238q11 -100 25 -120.5t67 -19.5q27 1 27 -6q0 -10 -18 -10q-10 0 -16 1q-28 2 -113 2q-16 0 -82.5 -1t-72.5 -1h-13q-16 0 -16 7t11.5 8t75.5 1q26 0 33 12v0q6 9 6 33q0 35 -5 82
l-19 179l-44 -49q-12 -13 -38 -42l-127 -129q-43 -44 -50.5 -53t-7.5 -18q0 -11 12 -13t67 -2q6 0 6 -4q0 -13 -25 -13h-15q-22 0 -56.5 2t-43.5 2q-14 0 -42 -2t-42 -2q-11 0 -11 6q0 12 21 12q61 1 96 34q18 15 52 46q6 5 51 53l194 204l-29 219q-9 71 -20.5 87t-51.5 16
h-9q-10 -1 -19 -1t-9 6q0 11 21 11q12 0 37 -1q50 -2 111 -2q18 0 70.5 1.5t57.5 1.5h5q9 0 9 -6q0 -12 -21 -12h-23q-37 0 -48 -3q-24 -7 -24 -34q0 -14 5 -58l18 -159l174 170l28 28q2 2 13 14q8 10 17 18t9 13q0 13 -52 13h-12q-10 0 -10 7q0 9 14 9q19 0 56.5 -1.5
t56.5 -1.5q12 0 34.5 1.5t42.5 1.5h6q11 0 11 -6zM1112 686q0 -9 -12 -9q-6 0 -10 1h-16q-43 0 -53 -16q-15 -23 -44 -97l-201 -515q-2 -6 -5 -14q0 -18 40 -23q13 0 31 -1q13 -1 13 -7q0 -7 -14 -7q-72 1 -207 1q-47 0 -54.5 1t-7.5 6q0 7 27 7q37 1 49 5q19 7 28 22
q9 22 21 52l195 490q29 73 29 80q0 17 -31 17h-40q-11 0 -11 8q0 7 11 7h9q6 -1 48 -1l149 1q6 -1 10 -1l37 1q9 0 9 -8z" />
    <glyph glyph-name="Twelveroman" unicode="&#x216b;" horiz-adv-x="1278" 
d="M806 685q0 -10 -33 -10q-40 1 -63 -11q-19 -10 -50 -42q-15 -15 -44 -45l-191 -185l26 -238q11 -100 25 -120.5t67 -19.5q27 1 27 -6q0 -10 -18 -10q-10 0 -16 1q-28 2 -113 2q-16 0 -82.5 -1t-72.5 -1h-13q-16 0 -16 7t11.5 8t75.5 1q26 0 33 12v0q6 9 6 33q0 35 -5 82
l-19 179l-44 -49q-12 -13 -38 -42l-127 -129q-43 -44 -50.5 -53t-7.5 -18q0 -11 12 -13t67 -2q6 0 6 -4q0 -13 -25 -13h-15q-22 0 -56.5 2t-43.5 2q-14 0 -42 -2t-42 -2q-11 0 -11 6q0 12 21 12q61 1 96 34q18 15 52 46q6 5 51 53l194 204l-29 219q-9 71 -20.5 87t-51.5 16
h-9q-10 -1 -19 -1t-9 6q0 11 21 11q12 0 37 -1q50 -2 111 -2q18 0 70.5 1.5t57.5 1.5h5q9 0 9 -6q0 -12 -21 -12h-23q-37 0 -48 -3q-24 -7 -24 -34q0 -14 5 -58l18 -159l174 170l28 28q2 2 13 14q8 10 17 18t9 13q0 13 -52 13h-12q-10 0 -10 7q0 9 14 9q19 0 56.5 -1.5
t56.5 -1.5q12 0 34.5 1.5t42.5 1.5h6q11 0 11 -6zM1112 686q0 -9 -12 -9q-6 0 -10 1h-16q-43 0 -53 -16q-15 -23 -44 -97l-201 -515q-2 -6 -5 -14q0 -18 40 -23q13 0 31 -1q13 -1 13 -7q0 -7 -14 -7q-72 1 -207 1q-47 0 -54.5 1t-7.5 6q0 7 27 7q37 1 49 5q19 7 28 22
q9 22 21 52l195 490q29 73 29 80q0 17 -31 17h-40q-11 0 -11 8q0 7 11 7h9q6 -1 48 -1l149 1q6 -1 10 -1l37 1q9 0 9 -8zM1439 686q0 -9 -12 -9q-6 0 -10 1h-16q-43 0 -53 -16q-15 -23 -44 -97l-201 -515q-2 -6 -5 -14q0 -18 40 -23q13 0 31 -1q13 -1 13 -7q0 -7 -14 -7
q-72 1 -207 1q-47 0 -54.5 1t-7.5 6q0 7 27 7q37 1 49 5q19 7 28 22q9 22 21 52l195 490q29 73 29 80q0 17 -31 17h-40q-11 0 -11 8q0 7 11 7h9q6 -1 48 -1l149 1q6 -1 10 -1l37 1q9 0 9 -8z" />
    <glyph glyph-name="uni216C" unicode="&#x216c;" horiz-adv-x="575" 
d="M550 197q0 -14 -56 -154l-12 -30q-4 -10 -9.5 -11.5t-36.5 -1.5h-61q-42 0 -83.5 1t-37.5 1h-32q-28 -1 -51 -1h-80q-20 0 -40 1q-20 0 -19 0q-13 0 -39 -2t-39 -2q-14 0 -14 8q0 9 25 9q2 -2 51 2q18 1 23.5 5.5t11.5 21.5q3 6 17 40l218 530q17 41 17 52q0 15 -50 15
q3 0 -29 -2q-9 -1 -9 8q0 10 48 10q-1 0 43 -1q24 -1 47 -3q49 -2 104 1l19 1q5 1 12 1q10 0 10 -10q0 -9 -12 -9q-1 0 -21 2h-12q-35 0 -43.5 -5.5t-37.5 -78.5l-208 -523q-8 -19 -12 -31q-2 -4 -3 -7q0 -16 41 -16q140 0 192 14q76 20 125 112q18 34 25 53q3 9 9 9
q9 0 9 -9z" />
    <glyph glyph-name="uni216D" unicode="&#x216d;" horiz-adv-x="573" 
d="M688 650q0 -13 -15 -42q-46 -89 -55 -125q-4 -16 -12 -16t-8 10q0 3 7 25q6 19 6 49q0 62 -32 98t-87 36q-130 0 -219 -141q-98 -155 -98 -329q0 -184 134 -184q48 0 90 24q76 44 110 104q13 23 22 23q6 0 6 -8q0 -23 -56 -83q-98 -104 -225 -104q-89 0 -139.5 56.5
t-50.5 156.5q0 188 134.5 346t294.5 158q44 0 74 -15q21 -11 62 -46q10 -9 20 -9q12 0 23 19q4 4 8 4q6 0 6 -7z" />
    <glyph glyph-name="uni216E" unicode="&#x216e;" horiz-adv-x="715" 
d="M745 468q0 -142 -85.5 -259.5t-226.5 -170.5q-61 -23 -104 -29.5t-148 -7.5q-32 0 -152 -1l-56 -1q-9 -1 -21 -1q-14 0 -14 9q0 8 13 10q9 1 31 1q46 0 58 9q11 13 16.5 27t18.5 44l202 500q21 52 21 61q0 12 -31 15l-54 5q-16 0 -16 8t21 8q15 0 60 -2q23 -1 62 -1h68
q22 0 50 1h34q90 0 147 -29q106 -56 106 -196zM646 502q0 97 -52 139q-42 34 -118 34q-40 0 -60 -4q-10 -2 -23 -30q-19 -40 -27 -61l-189 -478q-25 -63 -25 -67q0 -15 54 -15q185 0 302 130q64 70 101 165t37 187z" />
    <glyph glyph-name="uni216F" unicode="&#x216f;" horiz-adv-x="776" 
d="M936 686q0 -14 -12 -14q-4 1 -13 3q-4 1 -10 1t-10 -1h-21q-4 1 -11 1q-12 0 -19 -14q-19 -39 -37 -86l-187 -487q-2 -7 -8 -22q0 -2 -2.5 -9.5t-8.5 -22.5q-4 -4 -4 -7q0 -12 26 -12h14l24 -1l20 1q3 -1 3 -5q0 -13 -15 -12l-28 2l-214 -2q-10 0 -10 6q0 11 27.5 11
t44.5 5q8 3 17 23l50 126l196 495q-1 -1 -99 -146l-331 -487q-19 -26 -25 -26q-8 0 -8 16l1 11l1 31l27 508q2 38 2 49q0 23 -4 23q-2 -2 -5 -10q-6 -20 -17 -49l-200 -545q-2 -6 -2 -9q0 -12 10 -15t49 -1l18 1q7 0 7 -6q0 -11 -13 -11q-11 0 -18 1l-64 1q-71 1 -105 -1
q-6 -1 -14 -1q-10 0 -10 7q0 11 15 11q5 0 11 -1t32 -1q34 0 42.5 9.5t30.5 67.5l202 540q3 10 8 23q3 4 5 8q0 4 -11.5 8.5t-22.5 4.5q-16 -1 -57 -2h-4q-7 0 -7 11q0 10 11 10q7 0 13 -1q13 -2 101 -2q77 0 82 1h5q6 0 6 -9q0 -15 -2 -55l-23 -454q4 7 23 33l24 33
l302 451h75l115 1q12 0 12 -7z" />
    <glyph glyph-name="oneroman" unicode="&#x2170;" horiz-adv-x="240" 
d="M325 611q0 -42 -39 -42q-20 0 -33 12.5t-13 31.5q0 41 46 41q39 0 39 -43zM256 424q0 -3 -5 -12q-7 -12 -23 -49l-115 -263q-23 -53 -23 -66q0 -27 28 -27q19 0 43.5 13.5t37.5 32.5q9 12 14 12q6 0 6 -6q0 -12 -28 -36q-42 -36 -95 -36q-35 0 -57.5 18t-22.5 46
q0 25 25 81l104 232q5 17 12 26q3 4 3 7q0 9 -44 12q-8 2 -8 7q0 9 8 9q1 0 15 -2t45 -2q42 0 59 7q10 4 14 4q7 0 7 -8z" />
    <glyph glyph-name="tworoman" unicode="&#x2171;" horiz-adv-x="480" 
d="M325 611q0 -42 -39 -42q-20 0 -33 12.5t-13 31.5q0 41 46 41q39 0 39 -43zM256 424q0 -3 -5 -12q-7 -12 -23 -49l-115 -263q-23 -53 -23 -66q0 -27 28 -27q19 0 43.5 13.5t37.5 32.5q9 12 14 12q6 0 6 -6q0 -12 -28 -36q-42 -36 -95 -36q-35 0 -57.5 18t-22.5 46
q0 25 25 81l104 232q5 17 12 26q3 4 3 7q0 9 -44 12q-8 2 -8 7q0 9 8 9q1 0 15 -2t45 -2q42 0 59 7q10 4 14 4q7 0 7 -8zM565 611q0 -42 -39 -42q-20 0 -33 12.5t-13 31.5q0 41 46 41q39 0 39 -43zM496 424q0 -3 -5 -12q-7 -12 -23 -49l-115 -263q-23 -53 -23 -66
q0 -27 28 -27q19 0 43.5 13.5t37.5 32.5q9 12 14 12q6 0 6 -6q0 -12 -28 -36q-42 -36 -95 -36q-35 0 -57.5 18t-22.5 46q0 25 25 81l104 232q5 17 12 26q3 4 3 7q0 9 -44 12q-8 2 -8 7q0 9 8 9q1 0 15 -2t45 -2q42 0 59 7q10 4 14 4q7 0 7 -8z" />
    <glyph glyph-name="threeroman" unicode="&#x2172;" horiz-adv-x="720" 
d="M325 611q0 -42 -39 -42q-20 0 -33 12.5t-13 31.5q0 41 46 41q39 0 39 -43zM256 424q0 -3 -5 -12q-7 -12 -23 -49l-115 -263q-23 -53 -23 -66q0 -27 28 -27q19 0 43.5 13.5t37.5 32.5q9 12 14 12q6 0 6 -6q0 -12 -28 -36q-42 -36 -95 -36q-35 0 -57.5 18t-22.5 46
q0 25 25 81l104 232q5 17 12 26q3 4 3 7q0 9 -44 12q-8 2 -8 7q0 9 8 9q1 0 15 -2t45 -2q42 0 59 7q10 4 14 4q7 0 7 -8zM565 611q0 -42 -39 -42q-20 0 -33 12.5t-13 31.5q0 41 46 41q39 0 39 -43zM496 424q0 -3 -5 -12q-7 -12 -23 -49l-115 -263q-23 -53 -23 -66
q0 -27 28 -27q19 0 43.5 13.5t37.5 32.5q9 12 14 12q6 0 6 -6q0 -12 -28 -36q-42 -36 -95 -36q-35 0 -57.5 18t-22.5 46q0 25 25 81l104 232q5 17 12 26q3 4 3 7q0 9 -44 12q-8 2 -8 7q0 9 8 9q1 0 15 -2t45 -2q42 0 59 7q10 4 14 4q7 0 7 -8zM805 611q0 -42 -39 -42
q-20 0 -33 12.5t-13 31.5q0 41 46 41q39 0 39 -43zM736 424q0 -3 -5 -12q-7 -12 -23 -49l-115 -263q-23 -53 -23 -66q0 -27 28 -27q19 0 43.5 13.5t37.5 32.5q9 12 14 12q6 0 6 -6q0 -12 -28 -36q-42 -36 -95 -36q-35 0 -57.5 18t-22.5 46q0 25 25 81l104 232q5 17 12 26
q3 4 3 7q0 9 -44 12q-8 2 -8 7q0 9 8 9q1 0 15 -2t45 -2q42 0 59 7q10 4 14 4q7 0 7 -8z" />
    <glyph glyph-name="fourroman" unicode="&#x2173;" horiz-adv-x="677" 
d="M325 611q0 -42 -39 -42q-20 0 -33 12.5t-13 31.5q0 41 46 41q39 0 39 -43zM256 424q0 -3 -5 -12q-7 -12 -23 -49l-115 -263q-23 -53 -23 -66q0 -27 28 -27q19 0 43.5 13.5t37.5 32.5q9 12 14 12q6 0 6 -6q0 -12 -28 -36q-42 -36 -95 -36q-35 0 -57.5 18t-22.5 46
q0 25 25 81l104 232q5 17 12 26q3 4 3 7q0 9 -44 12q-8 2 -8 7q0 9 8 9q1 0 15 -2t45 -2q42 0 59 7q10 4 14 4q7 0 7 -8zM672 373q0 -74 -28.5 -153t-77.5 -140q-75 -93 -154 -93q-43 0 -71 23.5t-28 60.5q0 46 39 138l58 137q12 28 12 37q0 21 -24 21q-20 0 -53.5 -29.5
t-48.5 -59.5q-7 -15 -15 -15q-9 0 -9 7q0 22 55 74q52 49 102 49q31 0 50 -16t19 -42q0 -28 -19 -72l-56 -130q-28 -65 -28 -110q0 -52 43 -52q63 0 137.5 115t74.5 214q0 33 -14 33q-1 0 -9.5 -2.5t-14.5 -2.5q-27 0 -27 25q0 16 12.5 27.5t29.5 11.5q45 0 45 -56z" />
    <glyph glyph-name="fiveroman" unicode="&#x2174;" horiz-adv-x="437" 
d="M432 373q0 -74 -28.5 -153t-77.5 -140q-75 -93 -154 -93q-43 0 -71 23.5t-28 60.5q0 46 39 138l58 137q12 28 12 37q0 21 -24 21q-20 0 -53.5 -29.5t-48.5 -59.5q-7 -15 -15 -15q-9 0 -9 7q0 22 55 74q52 49 102 49q31 0 50 -16t19 -42q0 -28 -19 -72l-56 -130
q-28 -65 -28 -110q0 -52 43 -52q63 0 137.5 115t74.5 214q0 33 -14 33q-1 0 -9.5 -2.5t-14.5 -2.5q-27 0 -27 25q0 16 12.5 27.5t29.5 11.5q45 0 45 -56z" />
    <glyph glyph-name="sixroman" unicode="&#x2175;" horiz-adv-x="677" 
d="M432 373q0 -74 -28.5 -153t-77.5 -140q-75 -93 -154 -93q-43 0 -71 23.5t-28 60.5q0 46 39 138l58 137q12 28 12 37q0 21 -24 21q-20 0 -53.5 -29.5t-48.5 -59.5q-7 -15 -15 -15q-9 0 -9 7q0 22 55 74q52 49 102 49q31 0 50 -16t19 -42q0 -28 -19 -72l-56 -130
q-28 -65 -28 -110q0 -52 43 -52q63 0 137.5 115t74.5 214q0 33 -14 33q-1 0 -9.5 -2.5t-14.5 -2.5q-27 0 -27 25q0 16 12.5 27.5t29.5 11.5q45 0 45 -56zM762 611q0 -42 -39 -42q-20 0 -33 12.5t-13 31.5q0 41 46 41q39 0 39 -43zM693 424q0 -3 -5 -12q-7 -12 -23 -49
l-115 -263q-23 -53 -23 -66q0 -27 28 -27q19 0 43.5 13.5t37.5 32.5q9 12 14 12q6 0 6 -6q0 -12 -28 -36q-42 -36 -95 -36q-35 0 -57.5 18t-22.5 46q0 25 25 81l104 232q5 17 12 26q3 4 3 7q0 9 -44 12q-8 2 -8 7q0 9 8 9q1 0 15 -2t45 -2q42 0 59 7q10 4 14 4q7 0 7 -8z
" />
    <glyph glyph-name="sevenroman" unicode="&#x2176;" horiz-adv-x="917" 
d="M432 373q0 -74 -28.5 -153t-77.5 -140q-75 -93 -154 -93q-43 0 -71 23.5t-28 60.5q0 46 39 138l58 137q12 28 12 37q0 21 -24 21q-20 0 -53.5 -29.5t-48.5 -59.5q-7 -15 -15 -15q-9 0 -9 7q0 22 55 74q52 49 102 49q31 0 50 -16t19 -42q0 -28 -19 -72l-56 -130
q-28 -65 -28 -110q0 -52 43 -52q63 0 137.5 115t74.5 214q0 33 -14 33q-1 0 -9.5 -2.5t-14.5 -2.5q-27 0 -27 25q0 16 12.5 27.5t29.5 11.5q45 0 45 -56zM762 611q0 -42 -39 -42q-20 0 -33 12.5t-13 31.5q0 41 46 41q39 0 39 -43zM693 424q0 -3 -5 -12q-7 -12 -23 -49
l-115 -263q-23 -53 -23 -66q0 -27 28 -27q19 0 43.5 13.5t37.5 32.5q9 12 14 12q6 0 6 -6q0 -12 -28 -36q-42 -36 -95 -36q-35 0 -57.5 18t-22.5 46q0 25 25 81l104 232q5 17 12 26q3 4 3 7q0 9 -44 12q-8 2 -8 7q0 9 8 9q1 0 15 -2t45 -2q42 0 59 7q10 4 14 4q7 0 7 -8z
M1002 611q0 -42 -39 -42q-20 0 -33 12.5t-13 31.5q0 41 46 41q39 0 39 -43zM933 424q0 -3 -5 -12q-7 -12 -23 -49l-115 -263q-23 -53 -23 -66q0 -27 28 -27q19 0 43.5 13.5t37.5 32.5q9 12 14 12q6 0 6 -6q0 -12 -28 -36q-42 -36 -95 -36q-35 0 -57.5 18t-22.5 46
q0 25 25 81l104 232q5 17 12 26q3 4 3 7q0 9 -44 12q-8 2 -8 7q0 9 8 9q1 0 15 -2t45 -2q42 0 59 7q10 4 14 4q7 0 7 -8z" />
    <glyph glyph-name="eightroman" unicode="&#x2177;" horiz-adv-x="1157" 
d="M432 373q0 -74 -28.5 -153t-77.5 -140q-75 -93 -154 -93q-43 0 -71 23.5t-28 60.5q0 46 39 138l58 137q12 28 12 37q0 21 -24 21q-20 0 -53.5 -29.5t-48.5 -59.5q-7 -15 -15 -15q-9 0 -9 7q0 22 55 74q52 49 102 49q31 0 50 -16t19 -42q0 -28 -19 -72l-56 -130
q-28 -65 -28 -110q0 -52 43 -52q63 0 137.5 115t74.5 214q0 33 -14 33q-1 0 -9.5 -2.5t-14.5 -2.5q-27 0 -27 25q0 16 12.5 27.5t29.5 11.5q45 0 45 -56zM762 611q0 -42 -39 -42q-20 0 -33 12.5t-13 31.5q0 41 46 41q39 0 39 -43zM693 424q0 -3 -5 -12q-7 -12 -23 -49
l-115 -263q-23 -53 -23 -66q0 -27 28 -27q19 0 43.5 13.5t37.5 32.5q9 12 14 12q6 0 6 -6q0 -12 -28 -36q-42 -36 -95 -36q-35 0 -57.5 18t-22.5 46q0 25 25 81l104 232q5 17 12 26q3 4 3 7q0 9 -44 12q-8 2 -8 7q0 9 8 9q1 0 15 -2t45 -2q42 0 59 7q10 4 14 4q7 0 7 -8z
M1002 611q0 -42 -39 -42q-20 0 -33 12.5t-13 31.5q0 41 46 41q39 0 39 -43zM933 424q0 -3 -5 -12q-7 -12 -23 -49l-115 -263q-23 -53 -23 -66q0 -27 28 -27q19 0 43.5 13.5t37.5 32.5q9 12 14 12q6 0 6 -6q0 -12 -28 -36q-42 -36 -95 -36q-35 0 -57.5 18t-22.5 46
q0 25 25 81l104 232q5 17 12 26q3 4 3 7q0 9 -44 12q-8 2 -8 7q0 9 8 9q1 0 15 -2t45 -2q42 0 59 7q10 4 14 4q7 0 7 -8zM1242 611q0 -42 -39 -42q-20 0 -33 12.5t-13 31.5q0 41 46 41q39 0 39 -43zM1173 424q0 -3 -5 -12q-7 -12 -23 -49l-115 -263q-23 -53 -23 -66
q0 -27 28 -27q19 0 43.5 13.5t37.5 32.5q9 12 14 12q6 0 6 -6q0 -12 -28 -36q-42 -36 -95 -36q-35 0 -57.5 18t-22.5 46q0 25 25 81l104 232q5 17 12 26q3 4 3 7q0 9 -44 12q-8 2 -8 7q0 9 8 9q1 0 15 -2t45 -2q42 0 59 7q10 4 14 4q7 0 7 -8z" />
    <glyph glyph-name="nineroman" unicode="&#x2178;" horiz-adv-x="708" 
d="M325 611q0 -42 -39 -42q-20 0 -33 12.5t-13 31.5q0 41 46 41q39 0 39 -43zM256 424q0 -3 -5 -12q-7 -12 -23 -49l-115 -263q-23 -53 -23 -66q0 -27 28 -27q19 0 43.5 13.5t37.5 32.5q9 12 14 12q6 0 6 -6q0 -12 -28 -36q-42 -36 -95 -36q-35 0 -57.5 18t-22.5 46
q0 25 25 81l104 232q5 17 12 26q3 4 3 7q0 9 -44 12q-8 2 -8 7q0 9 8 9q1 0 15 -2t45 -2q42 0 59 7q10 4 14 4q7 0 7 -8zM756 378q0 -35 -33 -35q-29 0 -29 24q0 8 14 19q4 3 4 11q0 20 -25 20q-35 0 -82 -57q-29 -35 -42 -59q-14 -28 -32 -85l-8 -26q-24 -78 -24 -130
q0 -56 42 -56q29 0 60.5 25.5t51.5 63.5q12 23 18 23q5 0 5 -6q0 -20 -30 -58q-52 -65 -125 -65q-97 0 -97 87q0 18 3 40q-36 -68 -70.5 -97t-78.5 -29q-70 0 -70 61q0 20 12 34t30 14q32 0 32 -28q0 -13 -25 -32q-4 -1 -4 -10q0 -22 33 -22q45 0 91.5 61t70.5 150l12 44
q17 62 17 88q0 58 -42 58q-61 0 -111 -78q-12 -18 -20 -18q-6 0 -6 7q0 15 36 52q59 61 121 61q52 0 75.5 -24t27.5 -81q66 106 137 106q27 0 44 -15t17 -38z" />
    <glyph glyph-name="tenroman" unicode="&#x2179;" horiz-adv-x="468" 
d="M516 378q0 -35 -33 -35q-29 0 -29 24q0 8 14 19q4 3 4 11q0 20 -25 20q-35 0 -82 -57q-29 -35 -42 -59q-14 -28 -32 -85l-8 -26q-24 -78 -24 -130q0 -56 42 -56q29 0 60.5 25.5t51.5 63.5q12 23 18 23q5 0 5 -6q0 -20 -30 -58q-52 -65 -125 -65q-97 0 -97 87q0 18 3 40
q-36 -68 -70.5 -97t-78.5 -29q-70 0 -70 61q0 20 12 34t30 14q32 0 32 -28q0 -13 -25 -32q-4 -1 -4 -10q0 -22 33 -22q45 0 91.5 61t70.5 150l12 44q17 62 17 88q0 58 -42 58q-61 0 -111 -78q-12 -18 -20 -18q-6 0 -6 7q0 15 36 52q59 61 121 61q52 0 75.5 -24t27.5 -81
q66 106 137 106q27 0 44 -15t17 -38z" />
    <glyph glyph-name="elevenroman" unicode="&#x217a;" horiz-adv-x="708" 
d="M516 378q0 -35 -33 -35q-29 0 -29 24q0 8 14 19q4 3 4 11q0 20 -25 20q-35 0 -82 -57q-29 -35 -42 -59q-14 -28 -32 -85l-8 -26q-24 -78 -24 -130q0 -56 42 -56q29 0 60.5 25.5t51.5 63.5q12 23 18 23q5 0 5 -6q0 -20 -30 -58q-52 -65 -125 -65q-97 0 -97 87q0 18 3 40
q-36 -68 -70.5 -97t-78.5 -29q-70 0 -70 61q0 20 12 34t30 14q32 0 32 -28q0 -13 -25 -32q-4 -1 -4 -10q0 -22 33 -22q45 0 91.5 61t70.5 150l12 44q17 62 17 88q0 58 -42 58q-61 0 -111 -78q-12 -18 -20 -18q-6 0 -6 7q0 15 36 52q59 61 121 61q52 0 75.5 -24t27.5 -81
q66 106 137 106q27 0 44 -15t17 -38zM793 611q0 -42 -39 -42q-20 0 -33 12.5t-13 31.5q0 41 46 41q39 0 39 -43zM724 424q0 -3 -5 -12q-7 -12 -23 -49l-115 -263q-23 -53 -23 -66q0 -27 28 -27q19 0 43.5 13.5t37.5 32.5q9 12 14 12q6 0 6 -6q0 -12 -28 -36q-42 -36 -95 -36
q-35 0 -57.5 18t-22.5 46q0 25 25 81l104 232q5 17 12 26q3 4 3 7q0 9 -44 12q-8 2 -8 7q0 9 8 9q1 0 15 -2t45 -2q42 0 59 7q10 4 14 4q7 0 7 -8z" />
    <glyph glyph-name="twelveroman" unicode="&#x217b;" horiz-adv-x="948" 
d="M516 378q0 -35 -33 -35q-29 0 -29 24q0 8 14 19q4 3 4 11q0 20 -25 20q-35 0 -82 -57q-29 -35 -42 -59q-14 -28 -32 -85l-8 -26q-24 -78 -24 -130q0 -56 42 -56q29 0 60.5 25.5t51.5 63.5q12 23 18 23q5 0 5 -6q0 -20 -30 -58q-52 -65 -125 -65q-97 0 -97 87q0 18 3 40
q-36 -68 -70.5 -97t-78.5 -29q-70 0 -70 61q0 20 12 34t30 14q32 0 32 -28q0 -13 -25 -32q-4 -1 -4 -10q0 -22 33 -22q45 0 91.5 61t70.5 150l12 44q17 62 17 88q0 58 -42 58q-61 0 -111 -78q-12 -18 -20 -18q-6 0 -6 7q0 15 36 52q59 61 121 61q52 0 75.5 -24t27.5 -81
q66 106 137 106q27 0 44 -15t17 -38zM793 611q0 -42 -39 -42q-20 0 -33 12.5t-13 31.5q0 41 46 41q39 0 39 -43zM724 424q0 -3 -5 -12q-7 -12 -23 -49l-115 -263q-23 -53 -23 -66q0 -27 28 -27q19 0 43.5 13.5t37.5 32.5q9 12 14 12q6 0 6 -6q0 -12 -28 -36q-42 -36 -95 -36
q-35 0 -57.5 18t-22.5 46q0 25 25 81l104 232q5 17 12 26q3 4 3 7q0 9 -44 12q-8 2 -8 7q0 9 8 9q1 0 15 -2t45 -2q42 0 59 7q10 4 14 4q7 0 7 -8zM1033 611q0 -42 -39 -42q-20 0 -33 12.5t-13 31.5q0 41 46 41q39 0 39 -43zM964 424q0 -3 -5 -12q-7 -12 -23 -49l-115 -263
q-23 -53 -23 -66q0 -27 28 -27q19 0 43.5 13.5t37.5 32.5q9 12 14 12q6 0 6 -6q0 -12 -28 -36q-42 -36 -95 -36q-35 0 -57.5 18t-22.5 46q0 25 25 81l104 232q5 17 12 26q3 4 3 7q0 9 -44 12q-8 2 -8 7q0 9 8 9q1 0 15 -2t45 -2q42 0 59 7q10 4 14 4q7 0 7 -8z" />
    <glyph glyph-name="uni217C" unicode="&#x217c;" horiz-adv-x="243" 
d="M361 700q0 -2 -5 -14q-3 -8 -10 -24l-224 -547q-25 -61 -25 -79q0 -27 36 -27t72 42q15 18 19 18q7 0 7 -7q0 -13 -33 -42q-38 -34 -98 -34q-82 0 -82 61q0 20 25 81l224 546q3 6 3 7q0 9 -19 9q-44 0 -44 8q0 6 9 6t27.5 -1t27.5 -1q43 0 64 4q11 2 15 2q11 0 11 -8z
" />
    <glyph glyph-name="uni217D" unicode="&#x217d;" horiz-adv-x="356" 
d="M401 356q0 -49 -41 -49q-14 0 -25 10.5t-11 23.5q0 24 27 24l8 -1q7 -3 12 -4q8 0 8 11q0 16 -19.5 28.5t-43.5 12.5q-74 0 -143 -110q-71 -113 -71 -211q0 -84 76 -84q57 0 115 69q10 12 16 12q5 0 5 -6q0 -12 -26 -38q-57 -57 -128 -57q-65 0 -104.5 37.5t-39.5 99.5
q0 105 112 215q92 91 190 91q37 0 60 -20.5t23 -53.5z" />
    <glyph glyph-name="uni217E" unicode="&#x217e;" horiz-adv-x="507" 
d="M631 705q-1 -3 -3 -7q-4 -8 -11 -23l-228 -553q-26 -63 -26 -78q0 -28 32 -28q48 0 82 53q11 17 15 17q7 0 7 -8q0 -17 -34 -48q-42 -38 -101 -38q-75 0 -75 64q0 13 2 29q-37 -53 -71 -75.5t-80 -22.5q-56 0 -91.5 35.5t-35.5 92.5q0 118 112 223q101 95 193 95
q64 0 85 -61l6 12l7 15l114 274q4 5 4 9q0 7 -5.5 8.5t-37.5 3.5q-19 1 -19 7t11 6h12q13 0 37.5 -1t35.5 -1q38 0 49 4q6 2 8 2q6 0 6 -6zM390 352q0 23 -21 41t-47 18q-74 0 -151 -124q-73 -117 -73 -198q0 -73 66 -73q58 0 114 81q40 57 69 133l23 59q20 51 20 63z" />
    <glyph glyph-name="thousandroman" unicode="&#x217f;" horiz-adv-x="691" 
d="M663 354q0 -27 -25 -84l-74 -168q-18 -41 -18 -59q0 -20 23 -20q35 0 68 37q12 13 19 13q6 0 6 -4q0 -12 -34 -36q-50 -36 -92 -36q-28 0 -45.5 14.5t-17.5 37.5q0 25 22 76l73 169q26 60 26 78q0 35 -30 35q-47 0 -101 -67q-35 -43 -89 -170l-60 -141q-14 -33 -21 -33
q-5 0 -8 1q-15 2 -26 2q-6 0 -16.5 -1.5t-15.5 -1.5q-7 0 -7 5q0 3 4 11t11 23l104 247q33 78 33 102q0 28 -30 28q-39 0 -96 -65q-17 -20 -53 -70q-13 -18 -37 -75l-75 -176q-12 -28 -18 -28q-5 0 -8 1q-16 2 -19 2q-31 0 -37 -3q-2 -1 -6 -1q-5 0 -5 5q5 11 12 24l158 367
q3 5 3 7q0 9 -18 9q-28 0 -28 10q0 7 10 7q9 0 28 -2t28 -2q45 0 57 7l6 2q6 0 6 -7q0 -2 -9 -22q-7 -14 -19 -49l-5 -14q9 10 38 42q45 51 110 51q41 0 58 -21t19 -74q64 94 138 94q38 0 60.5 -21t22.5 -56z" />
    <glyph glyph-name="Dcroat" unicode="&#x110;" horiz-adv-x="718" 
d="M747 469q0 -143 -84.5 -258.5t-227.5 -170.5q-64 -24 -106.5 -31t-145.5 -8q-32 0 -152 -1l-56 -1q-9 -1 -21 -1q-14 0 -14 9q0 8 13 10q9 1 31 1q47 0 58 9q2 0 7 9t15 32l13 30l99 246l-21 -1h-21q-3 0 -13 1h-17q-14 0 -21 -1h-9q-16 0 -16 12t18 12h8q10 -1 55 -1
q26 0 47 1l93 231q21 52 21 61q0 12 -31 15l-54 5q-16 0 -16 8t21 8q15 0 60 -2q23 -1 62 -1h67q22 0 51 1h34q90 0 147 -29q106 -56 106 -195zM648 502q0 97 -52 139q-42 34 -118 34q-40 0 -60 -4q-10 -2 -23 -30q-17 -35 -27 -61l-84 -212q11 -1 19 -1l82 1q13 0 13 -12
t-33 -14q7 0 -40 0q-15 0 -50 2l-96 -242q-25 -63 -25 -67q0 -15 56 -15q100 0 168.5 29.5t131.5 100t100.5 165.5t37.5 187z" />
    <glyph glyph-name="Ibreve" unicode="&#x12c;" horiz-adv-x="327" 
d="M488 686q0 -9 -12 -9q-6 0 -10 1h-16q-43 0 -53 -16q-15 -23 -44 -97l-201 -515q-2 -6 -5 -14q0 -18 40 -23q13 0 31 -1q13 -1 13 -7q0 -7 -14 -7q-72 1 -207 1q-47 0 -54.5 1t-7.5 6q0 7 27 7q37 1 49 5q19 7 28 22q9 22 21 52l195 490q29 73 29 80q0 17 -31 17h-40
q-11 0 -11 8q0 7 11 7h9q6 -1 48 -1l149 1q6 -1 10 -1l37 1q9 0 9 -8zM523 873q0 -17 -33 -58q-57 -71 -128 -71q-84 0 -84 94q0 38 12 38q4 0 4 -4v-3q-1 -4 -1 -11q0 -61 90 -61q53 0 86 26q10 8 38 45q8 10 12 10t4 -5z" />
    <glyph glyph-name="ibreve" unicode="&#x12d;" horiz-adv-x="240" 
d="M256 424q0 -3 -5 -12q-7 -12 -23 -49l-115 -263q-23 -53 -23 -66q0 -27 28 -27q19 0 43.5 13.5t37.5 32.5q9 12 14 12q6 0 6 -6q0 -12 -28 -36q-42 -36 -95 -36q-35 0 -57.5 18t-22.5 46q0 25 25 81l104 232q5 17 12 26q3 4 3 7q0 9 -44 12q-8 2 -8 7q0 9 8 9q1 0 15 -2
t45 -2q42 0 59 7q10 4 14 4q7 0 7 -8zM369 614q0 -17 -33 -58q-57 -71 -128 -71q-84 0 -84 94q0 38 12 38q4 0 4 -4v-3q-1 -4 -1 -11q0 -61 90 -61q53 0 86 26q10 8 38 45q8 10 12 10t4 -5z" />
    <glyph glyph-name="Idotaccent" unicode="&#x130;" horiz-adv-x="327" 
d="M488 686q0 -9 -12 -9q-6 0 -10 1h-16q-43 0 -53 -16q-15 -23 -44 -97l-201 -515q-2 -6 -5 -14q0 -18 40 -23q13 0 31 -1q13 -1 13 -7q0 -7 -14 -7q-72 1 -207 1q-47 0 -54.5 1t-7.5 6q0 7 27 7q37 1 49 5q19 7 28 22q9 22 21 52l195 490q29 73 29 80q0 17 -31 17h-40
q-11 0 -11 8q0 7 11 7h9q6 -1 48 -1l149 1q6 -1 10 -1l37 1q9 0 9 -8zM430 798q0 -24 -15 -39t-39 -15q-44 0 -44 44q0 23 16.5 38.5t40.5 15.5q41 0 41 -44z" />
    <glyph glyph-name="IJ" unicode="&#x132;" horiz-adv-x="713" 
d="M488 686q0 -9 -12 -9q-6 0 -10 1h-16q-43 0 -53 -16q-15 -23 -44 -97l-201 -515q-2 -6 -5 -14q0 -18 40 -23q13 0 31 -1q13 -1 13 -7q0 -7 -14 -7q-72 1 -207 1q-47 0 -54.5 1t-7.5 6q0 7 27 7q37 1 49 5q19 7 28 22q9 22 21 52l195 490q29 73 29 80q0 17 -31 17h-40
q-11 0 -11 8q0 7 11 7h9q6 -1 48 -1l149 1q6 -1 10 -1l37 1q9 0 9 -8zM888 686q0 -10 -23 -10t-34 -1q-26 -3 -33 -10q-14 -5 -65 -136l-91 -235q-51 -133 -86 -197t-80 -110q-69 -71 -138 -71q-31 0 -52.5 19.5t-21.5 48.5q0 46 45 46q39 0 39 -37q0 -16 -5 -22.5
t-22 -13.5q-7 -3 -7 -9q0 -16 30 -16q49 0 82 64q15 29 57 134l175 439l21 54q2 9 8 26q4 6 4 10q0 19 -33 18l-50 -1q-9 0 -9 7q0 10 13 10l33 -1q5 0 18.5 1t33.5 1l88 -1q8 0 30 1q40 2 59 2q14 0 14 -10z" />
    <glyph glyph-name="ij" unicode="&#x133;" horiz-adv-x="475" 
d="M325 611q0 -42 -39 -42q-20 0 -33 12.5t-13 31.5q0 41 46 41q39 0 39 -43zM256 424q0 -3 -5 -12q-7 -12 -23 -49l-115 -263q-23 -53 -23 -66q0 -27 28 -27q19 0 43.5 13.5t37.5 32.5q9 12 14 12q6 0 6 -6q0 -12 -28 -36q-42 -36 -95 -36q-35 0 -57.5 18t-22.5 46
q0 25 25 81l104 232q5 17 12 26q3 4 3 7q0 9 -44 12q-8 2 -8 7q0 9 8 9q1 0 15 -2t45 -2q42 0 59 7q10 4 14 4q7 0 7 -8zM577 617q0 -22 -15 -37.5t-37 -15.5q-39 0 -39 36q0 23 15 39t36 16q17 0 28.5 -11t11.5 -27zM494 423q0 -5 -11 -32l-133 -324q-78 -189 -163 -270
q-57 -54 -125 -54q-80 0 -80 52q0 17 12 29.5t28 12.5q14 0 24 -9t10 -22q0 -6 -5 -17t-5 -15q0 -17 27 -17q38 0 63 28q34 38 98 197l164 408q2 3 3 6q0 8 -22 10q-34 2 -34 10t11 8q2 0 21 -2t51 -2q27 0 46 7q8 3 12 3q8 0 8 -7z" />
    <glyph glyph-name="Jcircumflex" unicode="&#x134;" horiz-adv-x="386" 
d="M561 686q0 -10 -23 -10t-34 -1q-26 -3 -33 -10q-14 -5 -65 -136l-91 -235q-51 -133 -86 -197t-80 -110q-69 -71 -138 -71q-31 0 -52.5 19.5t-21.5 48.5q0 46 45 46q39 0 39 -37q0 -16 -5 -22.5t-22 -13.5q-7 -3 -7 -9q0 -16 30 -16q49 0 82 64q15 29 57 134l175 439
l21 54q2 9 8 26q4 6 4 10q0 19 -33 18l-50 -1q-9 0 -9 7q0 10 13 10l33 -1q5 0 18.5 1t33.5 1l88 -1q8 0 30 1q40 2 59 2q14 0 14 -10zM571 946q0 -3 -4 -22l-34 -163q-2 -15 -12 -15q-35 0 -35 12q0 2 2 11l13 61q2 8 6 21q3 6 3 11q0 6 -4 6q-2 -1 -5 -5q-7 -10 -68 -63
q-40 -35 -49 -35q-11 0 -11 6q0 5 15 15q33 21 82 68.5t73 81.5q13 19 19 19q9 0 9 -9z" />
    <glyph glyph-name="jcircumflex" unicode="&#x135;" horiz-adv-x="235" 
d="M254 423q0 -5 -11 -32l-133 -324q-78 -189 -163 -270q-57 -54 -125 -54q-80 0 -80 52q0 17 12 29.5t28 12.5q14 0 24 -9t10 -22q0 -6 -5 -17t-5 -15q0 -17 27 -17q38 0 63 28q34 38 98 197l164 408q2 3 3 6q0 8 -22 10q-34 2 -34 10t11 8q2 0 21 -2t51 -2q27 0 46 7
q8 3 12 3q8 0 8 -7zM359 683q0 -3 -4 -22l-34 -163q-2 -15 -12 -15q-35 0 -35 12q0 2 2 11l13 61q2 8 6 21q3 6 3 11q0 6 -4 6q-2 -1 -5 -5q-7 -10 -68 -63q-40 -35 -49 -35q-11 0 -11 6q0 5 15 15q33 21 82 68.5t73 81.5q13 19 19 19q9 0 9 -9z" />
    <glyph glyph-name="napostrophe" unicode="&#x149;" horiz-adv-x="592" 
d="M325 636q0 -59 -64 -115q-39 -34 -58 -34q-4 0 -4 4q0 6 17 17q42 28 61 62q16 28 16 51t-13 23q-5 0 -16 -18q-8 -12 -26 -12q-14 0 -24.5 12t-10.5 29q0 23 17.5 38t42.5 15q26 0 44 -20.5t18 -51.5zM568 351q0 -24 -26 -83l-81 -183q-14 -32 -14 -43q0 -21 23 -21
q28 0 82 46q5 3 8 3q6 0 6 -5q0 -12 -33 -35q-45 -31 -96 -31q-31 0 -51 13.5t-20 34.5q0 17 19 60l80 179q29 65 29 88q0 34 -35 34q-46 0 -108 -66q-47 -50 -86 -140l-82 -190q-5 -15 -13 -15q-2 0 -22 2q-3 1 -12 1q-8 0 -27 -2q-3 -1 -7 -1q-7 0 -7 5q0 2 3 6l7 15
l153 368q3 5 5 9q-1 7 -25 8q-30 1 -30 11q0 7 11 7q7 0 22 -2t23 -2q54 0 71 8q7 3 9 3q6 0 6 -6q0 -3 -1 -5l-37 -94q8 9 23 25q74 78 143 78q40 0 65 -22.5t25 -57.5z" />
    <glyph glyph-name="clickretroflex" unicode="&#x1c3;" horiz-adv-x="263" 
d="M347 663q0 -22 -36 -102l-123 -272q-28 -61 -61 -132q-7 -18 -14 -18q-8 0 -8 10q0 7 4 21q36 122 89 313l29 122q14 58 28 77t43 19q49 0 49 -38zM128 56q0 -26 -18 -45t-43 -19q-20 0 -33.5 13t-13.5 32q0 26 19 44.5t45 18.5q19 0 31.5 -12.5t12.5 -31.5z" />
    <glyph glyph-name="DZcaron" unicode="&#x1c4;" horiz-adv-x="1285" 
d="M745 468q0 -142 -85.5 -259.5t-226.5 -170.5q-61 -23 -104 -29.5t-148 -7.5q-32 0 -152 -1l-56 -1q-9 -1 -21 -1q-14 0 -14 9q0 8 13 10q9 1 31 1q46 0 58 9q11 13 16.5 27t18.5 44l202 500q21 52 21 61q0 12 -31 15l-54 5q-16 0 -16 8t21 8q15 0 60 -2q23 -1 62 -1h68
q22 0 50 1h34q90 0 147 -29q106 -56 106 -196zM646 502q0 97 -52 139q-42 34 -118 34q-40 0 -60 -4q-10 -2 -23 -30q-19 -40 -27 -61l-189 -478q-25 -63 -25 -67q0 -15 54 -15q185 0 302 130q64 70 101 165t37 187zM1418 691q-12 -16 -50 -58l-420 -471q-24 -27 -85 -98
q-9 -10 -35 -42q49 -4 147 -4q74 0 114 15t77 56q33 36 68 107q7 14 14 14t7 -7q0 -19 -86 -205q-42 2 -135 2l-325 -1q-5 -1 -13 -1t-8 5q0 1 15 16q26 28 79 85q3 4 22 23q59 62 99 106l386 430q-85 8 -120 8q-98 0 -146.5 -29.5t-88.5 -112.5q-10 -21 -20 -21q-7 0 -7 9
q0 7 19 47q8 16 23.5 49t39.5 82q72 -6 148 -6h128q59 0 94 2q18 1 34 1q14 0 25 -1zM1410 932q0 -3 -5 -6q-23 -15 -83.5 -73t-85.5 -89q-13 -19 -18 -19q-9 0 -9 10q0 3 2 12l3 13l31 142q5 23 7 26.5t11 3.5q32 0 32 -11q0 -1 -3 -14l-19 -77l-2 -12q0 -5 4 -5q3 0 33 31
q5 5 11 12l36 31q39 34 40 34q3 0 9 -3.5t6 -5.5z" />
    <glyph glyph-name="Dzcaron" unicode="&#x1c5;" horiz-adv-x="1139" 
d="M745 468q0 -142 -85.5 -259.5t-226.5 -170.5q-61 -23 -104 -29.5t-148 -7.5q-32 0 -152 -1l-56 -1q-9 -1 -21 -1q-14 0 -14 9q0 8 13 10q9 1 31 1q46 0 58 9q11 13 16.5 27t18.5 44l202 500q21 52 21 61q0 12 -31 15l-54 5q-16 0 -16 8t21 8q15 0 60 -2q23 -1 62 -1h68
q22 0 50 1h34q90 0 147 -29q106 -56 106 -196zM646 502q0 97 -52 139q-42 34 -118 34q-40 0 -60 -4q-10 -2 -23 -30q-19 -40 -27 -61l-189 -478q-25 -63 -25 -67q0 -15 54 -15q185 0 302 130q64 70 101 165t37 187zM1124 420q0 -19 -28 -45q-20 -18 -41 -36
q-181 -156 -277 -268q39 10 60 10q41 0 132 -37q34 -14 50 -14t27.5 12t11.5 29q0 19 -30 28q-11 6 -11 20q0 32 34 32q33 0 33 -38q0 -58 -45 -100q-38 -35 -65 -35q-11 0 -62 15q-143 42 -158 42q-12 0 -15 -17q-3 -20 -19 -20q-12 0 -12 10q0 16 21 40q18 19 52 57
q119 131 220 214q17 14 45 39q-56 -19 -103 -19q-59 0 -107 31q-8 5 -12 5q-7 0 -11 -7t-16 -42q-5 -14 -14 -14q-7 0 -7 7q0 3 4 11q10 19 34 97q3 15 11 15q5 0 34 -12q92 -38 181 -38q60 0 60 23q0 2 -1 8q-1 2 -1 5q0 11 13 11q12 0 12 -19zM1166 682q0 -3 -5 -6
q-23 -15 -83.5 -73t-85.5 -89q-13 -19 -18 -19q-9 0 -9 10q0 3 2 12l3 13l31 142q5 23 7 26.5t11 3.5q32 0 32 -11q0 -1 -3 -14l-19 -77l-2 -12q0 -5 4 -5q3 0 33 31q5 5 11 12l36 31q39 34 40 34q3 0 9 -3.5t6 -5.5z" />
    <glyph glyph-name="dzcaron" unicode="&#x1c6;" horiz-adv-x="931" 
d="M631 705q-1 -3 -3 -7q-4 -8 -11 -23l-228 -553q-26 -63 -26 -78q0 -28 32 -28q48 0 82 53q11 17 15 17q7 0 7 -8q0 -17 -34 -48q-42 -38 -101 -38q-75 0 -75 64q0 13 2 29q-37 -53 -71 -75.5t-80 -22.5q-56 0 -91.5 35.5t-35.5 92.5q0 118 112 223q101 95 193 95
q64 0 85 -61l6 12l7 15l114 274q4 5 4 9q0 7 -5.5 8.5t-37.5 3.5q-19 1 -19 7t11 6h12q13 0 37.5 -1t35.5 -1q38 0 49 4q6 2 8 2q6 0 6 -6zM390 352q0 23 -21 41t-47 18q-74 0 -151 -124q-73 -117 -73 -198q0 -73 66 -73q58 0 114 81q40 57 69 133l23 59q20 51 20 63z
M916 420q0 -19 -28 -45q-20 -18 -41 -36q-181 -156 -277 -268q39 10 60 10q41 0 132 -37q34 -14 50 -14t27.5 12t11.5 29q0 19 -30 28q-11 6 -11 20q0 32 34 32q33 0 33 -38q0 -58 -45 -100q-38 -35 -65 -35q-11 0 -62 15q-143 42 -158 42q-12 0 -15 -17q-3 -20 -19 -20
q-12 0 -12 10q0 16 21 40q18 19 52 57q119 131 220 214q17 14 45 39q-56 -19 -103 -19q-59 0 -107 31q-8 5 -12 5q-7 0 -11 -7t-16 -42q-5 -14 -14 -14q-7 0 -7 7q0 3 4 11q10 19 34 97q3 15 11 15q5 0 34 -12q92 -38 181 -38q60 0 60 23q0 2 -1 8q-1 2 -1 5q0 11 13 11
q12 0 12 -19zM958 682q0 -3 -5 -6q-23 -15 -83.5 -73t-85.5 -89q-13 -19 -18 -19q-9 0 -9 10q0 3 2 12l3 13l31 142q5 23 7 26.5t11 3.5q32 0 32 -11q0 -1 -3 -14l-19 -77l-2 -12q0 -5 4 -5q3 0 33 31q5 5 11 12l36 31q39 34 40 34q3 0 9 -3.5t6 -5.5z" />
    <glyph glyph-name="LJ" unicode="&#x1c7;" horiz-adv-x="961" 
d="M550 197q0 -14 -56 -154l-12 -30q-4 -10 -9.5 -11.5t-36.5 -1.5h-61q-42 0 -83.5 1t-37.5 1h-32q-28 -1 -51 -1h-80q-20 0 -40 1q-20 0 -19 0q-13 0 -39 -2t-39 -2q-14 0 -14 8q0 9 25 9q2 -2 51 2q18 1 23.5 5.5t11.5 21.5q3 6 17 40l218 530q17 41 17 52q0 15 -50 15
q3 0 -29 -2q-9 -1 -9 8q0 10 48 10q-1 0 43 -1q24 -1 47 -3q49 -2 104 1l19 1q5 1 12 1q10 0 10 -10q0 -9 -12 -9q-1 0 -21 2h-12q-35 0 -43.5 -5.5t-37.5 -78.5l-208 -523q-8 -19 -12 -31q-2 -4 -3 -7q0 -16 41 -16q140 0 192 14q76 20 125 112q18 34 25 53q3 9 9 9
q9 0 9 -9zM1136 686q0 -10 -23 -10t-34 -1q-26 -3 -33 -10q-14 -5 -65 -136l-91 -235q-51 -133 -86 -197t-80 -110q-69 -71 -138 -71q-31 0 -52.5 19.5t-21.5 48.5q0 46 45 46q39 0 39 -37q0 -16 -5 -22.5t-22 -13.5q-7 -3 -7 -9q0 -16 30 -16q49 0 82 64q15 29 57 134
l175 439l21 54q2 9 8 26q4 6 4 10q0 19 -33 18l-50 -1q-9 0 -9 7q0 10 13 10l33 -1q5 0 18.5 1t33.5 1l88 -1q8 0 30 1q40 2 59 2q14 0 14 -10z" />
    <glyph glyph-name="Lj" unicode="&#x1c8;" horiz-adv-x="810" 
d="M550 197q0 -14 -56 -154l-12 -30q-4 -10 -9.5 -11.5t-36.5 -1.5h-61q-42 0 -83.5 1t-37.5 1h-32q-28 -1 -51 -1h-80q-20 0 -40 1q-20 0 -19 0q-13 0 -39 -2t-39 -2q-14 0 -14 8q0 9 25 9q2 -2 51 2q18 1 23.5 5.5t11.5 21.5q3 6 17 40l218 530q17 41 17 52q0 15 -50 15
q3 0 -29 -2q-9 -1 -9 8q0 10 48 10q-1 0 43 -1q24 -1 47 -3q49 -2 104 1l19 1q5 1 12 1q10 0 10 -10q0 -9 -12 -9q-1 0 -21 2h-12q-35 0 -43.5 -5.5t-37.5 -78.5l-208 -523q-8 -19 -12 -31q-2 -4 -3 -7q0 -16 41 -16q140 0 192 14q76 20 125 112q18 34 25 53q3 9 9 9
q9 0 9 -9zM912 617q0 -22 -15 -37.5t-37 -15.5q-39 0 -39 36q0 23 15 39t36 16q17 0 28.5 -11t11.5 -27zM829 423q0 -5 -11 -32l-133 -324q-78 -189 -163 -270q-57 -54 -125 -54q-80 0 -80 52q0 17 12 29.5t28 12.5q14 0 24 -9t10 -22q0 -6 -5 -17t-5 -15q0 -17 27 -17
q38 0 63 28q34 38 98 197l164 408q2 3 3 6q0 8 -22 10q-34 2 -34 10t11 8q2 0 21 -2t51 -2q27 0 46 7q8 3 12 3q8 0 8 -7z" />
    <glyph glyph-name="lj" unicode="&#x1c9;" horiz-adv-x="478" 
d="M361 700q0 -2 -5 -14q-3 -8 -10 -24l-224 -547q-25 -61 -25 -79q0 -27 36 -27t72 42q15 18 19 18q7 0 7 -7q0 -13 -33 -42q-38 -34 -98 -34q-82 0 -82 61q0 20 25 81l224 546q3 6 3 7q0 9 -19 9q-44 0 -44 8q0 6 9 6t27.5 -1t27.5 -1q43 0 64 4q11 2 15 2q11 0 11 -8z
M580 617q0 -22 -15 -37.5t-37 -15.5q-39 0 -39 36q0 23 15 39t36 16q17 0 28.5 -11t11.5 -27zM497 423q0 -5 -11 -32l-133 -324q-78 -189 -163 -270q-57 -54 -125 -54q-80 0 -80 52q0 17 12 29.5t28 12.5q14 0 24 -9t10 -22q0 -6 -5 -17t-5 -15q0 -17 27 -17q38 0 63 28
q34 38 98 197l164 408q2 3 3 6q0 8 -22 10q-34 2 -34 10t11 8q2 0 21 -2t51 -2q27 0 46 7q8 3 12 3q8 0 8 -7z" />
    <glyph glyph-name="NJ" unicode="&#x1ca;" horiz-adv-x="1072" 
d="M856 684q0 -12 -29 -11l-45 1q-22 0 -30 -15l-8 -23l-15 -38l-200 -532q-5 -10 -15 -33l-6 -16q-9 -23 -14 -23q-9 0 -15 26l-158 637l-197 -547q-26 -72 -26 -81q0 -12 33 -12h12q8 0 16 1h8q34 0 34 -10t-15 -10q-7 0 -28 1q-42 2 -84 2q-5 0 -32 -1t-49 -1h-23
q-17 0 -17 8t24 11h13q5 0 36 2t42 19q4 9 12 28l19 50l196 542l4 8q0 8 -28 8q-48 0 -58 -1h-16q-20 0 -20 11q0 12 18 12q5 0 23 -1q36 -2 110 -2q57 0 77 2l138 -535l161 438q21 57 21 67q0 9 -14 9q3 0 -32 -1l-35 -1q-21 -1 -21 9q0 12 21 12l121 -2h19q15 1 28 1h31
q13 0 13 -9zM1247 686q0 -10 -23 -10t-34 -1q-26 -3 -33 -10q-14 -5 -65 -136l-91 -235q-51 -133 -86 -197t-80 -110q-69 -71 -138 -71q-31 0 -52.5 19.5t-21.5 48.5q0 46 45 46q39 0 39 -37q0 -16 -5 -22.5t-22 -13.5q-7 -3 -7 -9q0 -16 30 -16q49 0 82 64q15 29 57 134
l175 439l21 54q2 9 8 26q4 6 4 10q0 19 -33 18l-50 -1q-9 0 -9 7q0 10 13 10l33 -1q5 0 18.5 1t33.5 1l88 -1q8 0 30 1q40 2 59 2q14 0 14 -10z" />
    <glyph glyph-name="Nj" unicode="&#x1cb;" horiz-adv-x="921" 
d="M856 684q0 -12 -29 -11l-45 1q-22 0 -30 -15l-8 -23l-15 -38l-200 -532q-5 -10 -15 -33l-6 -16q-9 -23 -14 -23q-9 0 -15 26l-158 637l-197 -547q-26 -72 -26 -81q0 -12 33 -12h12q8 0 16 1h8q34 0 34 -10t-15 -10q-7 0 -28 1q-42 2 -84 2q-5 0 -32 -1t-49 -1h-23
q-17 0 -17 8t24 11h13q5 0 36 2t42 19q4 9 12 28l19 50l196 542l4 8q0 8 -28 8q-48 0 -58 -1h-16q-20 0 -20 11q0 12 18 12q5 0 23 -1q36 -2 110 -2q57 0 77 2l138 -535l161 438q21 57 21 67q0 9 -14 9q3 0 -32 -1l-35 -1q-21 -1 -21 9q0 12 21 12l121 -2h19q15 1 28 1h31
q13 0 13 -9zM1023 617q0 -22 -15 -37.5t-37 -15.5q-39 0 -39 36q0 23 15 39t36 16q17 0 28.5 -11t11.5 -27zM940 423q0 -5 -11 -32l-133 -324q-78 -189 -163 -270q-57 -54 -125 -54q-80 0 -80 52q0 17 12 29.5t28 12.5q14 0 24 -9t10 -22q0 -6 -5 -17t-5 -15q0 -17 27 -17
q38 0 63 28q34 38 98 197l164 408q2 3 3 6q0 8 -22 10q-34 2 -34 10t11 8q2 0 21 -2t51 -2q27 0 46 7q8 3 12 3q8 0 8 -7z" />
    <glyph glyph-name="nj" unicode="&#x1cc;" horiz-adv-x="727" 
d="M464 351q0 -24 -26 -83l-81 -183q-14 -32 -14 -43q0 -21 23 -21q28 0 82 46q5 3 8 3q6 0 6 -5q0 -12 -33 -35q-45 -31 -96 -31q-31 0 -51 13.5t-20 34.5q0 17 19 60l80 179q29 65 29 88q0 34 -35 34q-46 0 -108 -66q-47 -50 -86 -140l-82 -190q-5 -15 -13 -15q-2 0 -22 2
q-3 1 -12 1q-8 0 -27 -2q-3 -1 -7 -1q-7 0 -7 5q0 2 3 6l7 15l153 368q3 5 5 9q-1 7 -25 8q-30 1 -30 11q0 7 11 7q7 0 22 -2t23 -2q54 0 71 8q7 3 9 3q6 0 6 -6q0 -3 -1 -5l-37 -94q8 9 23 25q74 78 143 78q40 0 65 -22.5t25 -57.5zM829 617q0 -22 -15 -37.5t-37 -15.5
q-39 0 -39 36q0 23 15 39t36 16q17 0 28.5 -11t11.5 -27zM746 423q0 -5 -11 -32l-133 -324q-78 -189 -163 -270q-57 -54 -125 -54q-80 0 -80 52q0 17 12 29.5t28 12.5q14 0 24 -9t10 -22q0 -6 -5 -17t-5 -15q0 -17 27 -17q38 0 63 28q34 38 98 197l164 408q2 3 3 6
q0 8 -22 10q-34 2 -34 10t11 8q2 0 21 -2t51 -2q27 0 46 7q8 3 12 3q8 0 8 -7z" />
    <glyph glyph-name="Acaron" unicode="&#x1cd;" horiz-adv-x="627" 
d="M593 9q0 -10 -34 -11q37 1 -39 2l-76 1l-132 -1q-7 -1 -16 -1q-17 0 -17 12q0 9 11 9t22 -1h11q27 0 48 9q14 6 21 56l20 135q1 3 1 8q0 7 -36 7h-89q-47 -1 -51 -1h-16q-6 -6 -26 -30l-93 -128q-19 -26 -19 -36q0 -21 55 -21q6 0 18 1.5t18 1.5q14 0 14 -10
q0 -11 -27 -11l-55 1l-91 -2q-65 -1 -82 1.5t-17 11.5q0 8 10 8q7 0 20 -2t20 -2q34 0 57 13q16 9 65 74l289 380q26 34 79 101l88 114q10 13 17 13q10 0 10 -14q0 -23 -7 -55q-13 -60 -28 -181l-44 -356q-6 -49 -6 -54q0 -29 36 -31l59 -3q12 -1 12 -8zM460 536q0 9 -4 9
q-6 0 -11 -12.5t-9 -15.5q-6 -7 -32 -42l-107 -144q-18 -24 -47 -62q-5 -4 -6 -7q0 -8 14 -7l20 1l50 -1q74 -1 90 7l31 205q3 20 9 55q2 10 2 14zM765 948q0 -3 -5 -6q-23 -15 -83.5 -73t-85.5 -89q-13 -19 -18 -19q-9 0 -9 10q0 3 2 12l3 13l31 142q5 23 7 26.5t11 3.5
q32 0 32 -11q0 -1 -3 -14l-19 -77l-2 -12q0 -5 4 -5q3 0 33 31q5 5 11 12l36 31q39 34 40 34q3 0 9 -3.5t6 -5.5z" />
    <glyph glyph-name="acaron" unicode="&#x1ce;" horiz-adv-x="487" 
d="M501 426q0 -3 -8 -21l-132 -300q-19 -43 -19 -66q0 -26 26 -26q39 0 78 53q8 11 12 11t4 -4q0 -11 -22 -35q-44 -47 -105 -47q-31 0 -50.5 15t-19.5 39q0 15 7 35q-63 -93 -146 -93q-52 0 -85 33.5t-33 85.5q0 57 38 125t101 124q86 76 158 76q75 0 84 -72l25 53
q8 16 14 16q2 0 12 -2t14 -2q22 0 34 6q4 3 7 3q6 0 6 -7zM375 341q0 31 -18.5 50t-47.5 19q-50 0 -96 -59q-53 -67 -85 -141.5t-32 -130.5q0 -68 56 -68q32 0 69.5 35t62.5 88l78 168q13 28 13 39zM510 673q0 -3 -5 -6q-23 -15 -83.5 -73t-85.5 -89q-13 -19 -18 -19
q-9 0 -9 10q0 3 2 12l3 13l31 142q5 23 7 26.5t11 3.5q32 0 32 -11q0 -1 -3 -14l-19 -77l-2 -12q0 -5 4 -5q3 0 33 31q5 5 11 12l36 31q39 34 40 34q3 0 9 -3.5t6 -5.5z" />
    <glyph glyph-name="Icaron" unicode="&#x1cf;" horiz-adv-x="327" 
d="M488 686q0 -9 -12 -9q-6 0 -10 1h-16q-43 0 -53 -16q-15 -23 -44 -97l-201 -515q-2 -6 -5 -14q0 -18 40 -23q13 0 31 -1q13 -1 13 -7q0 -7 -14 -7q-72 1 -207 1q-47 0 -54.5 1t-7.5 6q0 7 27 7q37 1 49 5q19 7 28 22q9 22 21 52l195 490q29 73 29 80q0 17 -31 17h-40
q-11 0 -11 8q0 7 11 7h9q6 -1 48 -1l149 1q6 -1 10 -1l37 1q9 0 9 -8zM556 931q0 -3 -5 -6q-23 -15 -83.5 -73t-85.5 -89q-13 -19 -18 -19q-9 0 -9 10q0 3 2 12l3 13l31 142q5 23 7 26.5t11 3.5q32 0 32 -11q0 -1 -3 -14l-19 -77l-2 -12q0 -5 4 -5q3 0 33 31q5 5 11 12
l36 31q39 34 40 34q3 0 9 -3.5t6 -5.5z" />
    <glyph glyph-name="icaron" unicode="&#x1d0;" horiz-adv-x="240" 
d="M256 424q0 -3 -5 -12q-7 -12 -23 -49l-115 -263q-23 -53 -23 -66q0 -27 28 -27q19 0 43.5 13.5t37.5 32.5q9 12 14 12q6 0 6 -6q0 -12 -28 -36q-42 -36 -95 -36q-35 0 -57.5 18t-22.5 46q0 25 25 81l104 232q5 17 12 26q3 4 3 7q0 9 -44 12q-8 2 -8 7q0 9 8 9q1 0 15 -2
t45 -2q42 0 59 7q10 4 14 4q7 0 7 -8zM392 672q0 -3 -5 -6q-23 -15 -83.5 -73t-85.5 -89q-13 -19 -18 -19q-9 0 -9 10q0 3 2 12l3 13l31 142q5 23 7 26.5t11 3.5q32 0 32 -11q0 -1 -3 -14l-19 -77l-2 -12q0 -5 4 -5q3 0 33 31q5 5 11 12l36 31q39 34 40 34q3 0 9 -3.5
t6 -5.5z" />
    <glyph glyph-name="Ocaron" unicode="&#x1d1;" horiz-adv-x="710" 
d="M739 469q0 -104 -52 -204.5t-142 -172.5q-133 -105 -266 -105q-100 0 -156 55.5t-56 155.5q0 101 52 207.5t140 183.5q132 116 270 116q101 0 157 -73q53 -69 53 -163zM644 533q0 57 -22 101q-28 57 -101 57q-125 0 -237 -181q-55 -89 -87.5 -189t-32.5 -181
q0 -139 126 -139q75 0 147 63q96 83 154 235q53 138 53 234zM777 942q0 -3 -5 -6q-23 -15 -83.5 -73t-85.5 -89q-13 -19 -18 -19q-9 0 -9 10q0 3 2 12l3 13l31 142q5 23 7 26.5t11 3.5q32 0 32 -11q0 -1 -3 -14l-19 -77l-2 -12q0 -5 4 -5q3 0 33 31q5 5 11 12l36 31
q39 34 40 34q3 0 9 -3.5t6 -5.5z" />
    <glyph glyph-name="ocaron" unicode="&#x1d2;" horiz-adv-x="462" 
d="M442 269q0 -117 -107 -211q-84 -74 -175 -74q-62 0 -102 43t-40 111q0 58 33 119t88 104q86 67 166 67q61 0 99 -44t38 -115zM365 334q0 76 -68 76q-83 0 -144 -119q-58 -114 -58 -214q0 -75 67 -75q84 0 140 108q63 122 63 224zM489 668q0 -3 -5 -6q-23 -15 -83.5 -73
t-85.5 -89q-13 -19 -18 -19q-9 0 -9 10q0 3 2 12l3 13l31 142q5 23 7 26.5t11 3.5q32 0 32 -11q0 -1 -3 -14l-19 -77l-2 -12q0 -5 4 -5q3 0 33 31q5 5 11 12l36 31q39 34 40 34q3 0 9 -3.5t6 -5.5z" />
    <glyph glyph-name="Ucaron" unicode="&#x1d3;" horiz-adv-x="647" 
d="M826 684q0 -9 -17 -9h-12q-6 1 -18 1q-28 0 -37 -7.5t-20 -39.5q-4 -11 -24 -62l-91 -229q-85 -215 -147 -276q-77 -76 -200 -76q-80 0 -127.5 33t-47.5 88q0 58 49 179l126 310q7 18 20 47q4 7 4 12q0 17 -25 20h-30q-10 0 -10 6q0 9 16 9h9l96 -1l115 1q11 0 11 -6
q0 -7 -5 -8t-37 -2q-28 -1 -32 -5q-7 -4 -15 -19q-9 -25 -25 -64l-123 -310q-50 -126 -50 -183q0 -38 27 -62t69 -24q121 0 192 100q48 68 114 237l88 226q29 74 29 85q0 21 -37 21h-9q-8 -1 -15 -1q-9 0 -9 7q0 8 16 8h15l137 -1q9 1 20 1q10 0 10 -6zM768 927q0 -3 -5 -6
q-23 -15 -83.5 -73t-85.5 -89q-13 -19 -18 -19q-9 0 -9 10q0 3 2 12l3 13l31 142q5 23 7 26.5t11 3.5q32 0 32 -11q0 -1 -3 -14l-19 -77l-2 -12q0 -5 4 -5q3 0 33 31q5 5 11 12l36 31q39 34 40 34q3 0 9 -3.5t6 -5.5z" />
    <glyph glyph-name="ucaron" unicode="&#x1d4;" horiz-adv-x="488" 
d="M498 418l-2 -5l-7 -16l-112 -261q-34 -79 -34 -98q0 -27 26 -27q37 0 82 52q11 13 15 13q6 0 6 -6q0 -24 -59 -60q-35 -21 -72 -21q-29 0 -51 16t-22 37q0 12 9 37l12 34q-67 -77 -101.5 -100t-84.5 -23q-39 0 -64 15.5t-25 40.5q0 27 22 76l103 231q4 9 17 35q3 5 3 7
q0 8 -24 8q-32 0 -32 11q0 7 7 7q8 0 23 -2t23 -2q52 0 77 9q6 2 8 2q5 0 5 -6q0 -8 -20 -50.5t-37 -87.5q-4 -11 -31 -73l-40 -92q-25 -57 -25 -81q0 -29 37 -29q39 0 101 64q70 72 116 182l64 152q5 12 11 12q-1 0 21 -2h8q27 0 35 3q5 2 7 2q5 0 5 -4zM515 668
q0 -3 -5 -6q-23 -15 -83.5 -73t-85.5 -89q-13 -19 -18 -19q-9 0 -9 10q0 3 2 12l3 13l31 142q5 23 7 26.5t11 3.5q32 0 32 -11q0 -1 -3 -14l-19 -77l-2 -12q0 -5 4 -5q3 0 33 31q5 5 11 12l36 31q39 34 40 34q3 0 9 -3.5t6 -5.5z" />
    <glyph glyph-name="Udieresismacron" unicode="&#x1d5;" horiz-adv-x="647" 
d="M826 684q0 -9 -17 -9h-12q-6 1 -18 1q-28 0 -37 -7.5t-20 -39.5q-4 -11 -24 -62l-91 -229q-85 -215 -147 -276q-77 -76 -200 -76q-80 0 -127.5 33t-47.5 88q0 58 49 179l126 310q7 18 20 47q4 7 4 12q0 17 -25 20h-30q-10 0 -10 6q0 9 16 9h9l96 -1l115 1q11 0 11 -6
q0 -7 -5 -8t-37 -2q-28 -1 -32 -5q-7 -4 -15 -19q-9 -25 -25 -64l-123 -310q-50 -126 -50 -183q0 -38 27 -62t69 -24q121 0 192 100q48 68 114 237l88 226q29 74 29 85q0 21 -37 21h-9q-8 -1 -15 -1q-9 0 -9 7q0 8 16 8h15l137 -1q9 1 20 1q10 0 10 -6zM686 795
q0 -22 -16 -37.5t-38 -15.5q-43 0 -43 40q0 24 16 40.5t40 16.5q41 0 41 -44zM517 792q0 -22 -16 -37t-39 -15q-42 0 -42 41q0 24 16.5 40t41.5 16q39 0 39 -45zM724 940l-19 -51h-237l18 51h238z" />
    <glyph glyph-name="udieresismacron" unicode="&#x1d6;" horiz-adv-x="488" 
d="M498 418l-2 -5l-7 -16l-112 -261q-34 -79 -34 -98q0 -27 26 -27q37 0 82 52q11 13 15 13q6 0 6 -6q0 -24 -59 -60q-35 -21 -72 -21q-29 0 -51 16t-22 37q0 12 9 37l12 34q-67 -77 -101.5 -100t-84.5 -23q-39 0 -64 15.5t-25 40.5q0 27 22 76l103 231q4 9 17 35q3 5 3 7
q0 8 -24 8q-32 0 -32 11q0 7 7 7q8 0 23 -2t23 -2q52 0 77 9q6 2 8 2q5 0 5 -6q0 -8 -20 -50.5t-37 -87.5q-4 -11 -31 -73l-40 -92q-25 -57 -25 -81q0 -29 37 -29q39 0 101 64q70 72 116 182l64 152q5 12 11 12q-1 0 21 -2h8q27 0 35 3q5 2 7 2q5 0 5 -4zM529 536
q0 -22 -16 -37.5t-38 -15.5q-43 0 -43 40q0 24 16 40.5t40 16.5q41 0 41 -44zM360 533q0 -22 -16 -37t-39 -15q-42 0 -42 41q0 24 16.5 40t41.5 16q39 0 39 -45zM509 678l-19 -51h-237l18 51h238z" />
    <glyph glyph-name="Udieresisacute" unicode="&#x1d7;" horiz-adv-x="647" 
d="M826 684q0 -9 -17 -9h-12q-6 1 -18 1q-28 0 -37 -7.5t-20 -39.5q-4 -11 -24 -62l-91 -229q-85 -215 -147 -276q-77 -76 -200 -76q-80 0 -127.5 33t-47.5 88q0 58 49 179l126 310q7 18 20 47q4 7 4 12q0 17 -25 20h-30q-10 0 -10 6q0 9 16 9h9l96 -1l115 1q11 0 11 -6
q0 -7 -5 -8t-37 -2q-28 -1 -32 -5q-7 -4 -15 -19q-9 -25 -25 -64l-123 -310q-50 -126 -50 -183q0 -38 27 -62t69 -24q121 0 192 100q48 68 114 237l88 226q29 74 29 85q0 21 -37 21h-9q-8 -1 -15 -1q-9 0 -9 7q0 8 16 8h15l137 -1q9 1 20 1q10 0 10 -6zM686 795
q0 -22 -16 -37.5t-38 -15.5q-43 0 -43 40q0 24 16 40.5t40 16.5q41 0 41 -44zM517 792q0 -22 -16 -37t-39 -15q-42 0 -42 41q0 24 16.5 40t41.5 16q39 0 39 -45zM753 1056q0 -5 -20 -20l-143 -106q-55 -41 -61 -41q-3 0 -3 2t2 5l6 6l127 159h75q17 2 17 -5z" />
    <glyph glyph-name="udieresisacute" unicode="&#x1d8;" horiz-adv-x="488" 
d="M498 418l-2 -5l-7 -16l-112 -261q-34 -79 -34 -98q0 -27 26 -27q37 0 82 52q11 13 15 13q6 0 6 -6q0 -24 -59 -60q-35 -21 -72 -21q-29 0 -51 16t-22 37q0 12 9 37l12 34q-67 -77 -101.5 -100t-84.5 -23q-39 0 -64 15.5t-25 40.5q0 27 22 76l103 231q4 9 17 35q3 5 3 7
q0 8 -24 8q-32 0 -32 11q0 7 7 7q8 0 23 -2t23 -2q52 0 77 9q6 2 8 2q5 0 5 -6q0 -8 -20 -50.5t-37 -87.5q-4 -11 -31 -73l-40 -92q-25 -57 -25 -81q0 -29 37 -29q39 0 101 64q70 72 116 182l64 152q5 12 11 12q-1 0 21 -2h8q27 0 35 3q5 2 7 2q5 0 5 -4zM529 536
q0 -22 -16 -37.5t-38 -15.5q-43 0 -43 40q0 24 16 40.5t40 16.5q41 0 41 -44zM360 533q0 -22 -16 -37t-39 -15q-42 0 -42 41q0 24 16.5 40t41.5 16q39 0 39 -45zM588 794q0 -5 -20 -20l-143 -106q-55 -41 -61 -41q-3 0 -3 2t2 5l6 6l127 159h75q17 2 17 -5z" />
    <glyph glyph-name="Udieresiscaron" unicode="&#x1d9;" horiz-adv-x="647" 
d="M826 684q0 -9 -17 -9h-12q-6 1 -18 1q-28 0 -37 -7.5t-20 -39.5q-4 -11 -24 -62l-91 -229q-85 -215 -147 -276q-77 -76 -200 -76q-80 0 -127.5 33t-47.5 88q0 58 49 179l126 310q7 18 20 47q4 7 4 12q0 17 -25 20h-30q-10 0 -10 6q0 9 16 9h9l96 -1l115 1q11 0 11 -6
q0 -7 -5 -8t-37 -2q-28 -1 -32 -5q-7 -4 -15 -19q-9 -25 -25 -64l-123 -310q-50 -126 -50 -183q0 -38 27 -62t69 -24q121 0 192 100q48 68 114 237l88 226q29 74 29 85q0 21 -37 21h-9q-8 -1 -15 -1q-9 0 -9 7q0 8 16 8h15l137 -1q9 1 20 1q10 0 10 -6zM686 795
q0 -22 -16 -37.5t-38 -15.5q-43 0 -43 40q0 24 16 40.5t40 16.5q41 0 41 -44zM517 792q0 -22 -16 -37t-39 -15q-42 0 -42 41q0 24 16.5 40t41.5 16q39 0 39 -45zM748 1076q0 -3 -5 -6q-23 -15 -83.5 -73t-85.5 -89q-13 -19 -18 -19q-9 0 -9 10q0 3 2 12l3 13l31 142
q5 23 7 26.5t11 3.5q32 0 32 -11q0 -1 -3 -14l-19 -77l-2 -12q0 -5 4 -5q3 0 33 31q5 5 11 12l36 31q39 34 40 34q3 0 9 -3.5t6 -5.5z" />
    <glyph glyph-name="udieresiscaron" unicode="&#x1da;" horiz-adv-x="488" 
d="M498 418l-2 -5l-7 -16l-112 -261q-34 -79 -34 -98q0 -27 26 -27q37 0 82 52q11 13 15 13q6 0 6 -6q0 -24 -59 -60q-35 -21 -72 -21q-29 0 -51 16t-22 37q0 12 9 37l12 34q-67 -77 -101.5 -100t-84.5 -23q-39 0 -64 15.5t-25 40.5q0 27 22 76l103 231q4 9 17 35q3 5 3 7
q0 8 -24 8q-32 0 -32 11q0 7 7 7q8 0 23 -2t23 -2q52 0 77 9q6 2 8 2q5 0 5 -6q0 -8 -20 -50.5t-37 -87.5q-4 -11 -31 -73l-40 -92q-25 -57 -25 -81q0 -29 37 -29q39 0 101 64q70 72 116 182l64 152q5 12 11 12q-1 0 21 -2h8q27 0 35 3q5 2 7 2q5 0 5 -4zM529 536
q0 -22 -16 -37.5t-38 -15.5q-43 0 -43 40q0 24 16 40.5t40 16.5q41 0 41 -44zM360 533q0 -22 -16 -37t-39 -15q-42 0 -42 41q0 24 16.5 40t41.5 16q39 0 39 -45zM582 814q0 -3 -5 -6q-23 -15 -83.5 -73t-85.5 -89q-13 -19 -18 -19q-9 0 -9 10q0 3 2 12l3 13l31 142
q5 23 7 26.5t11 3.5q32 0 32 -11q0 -1 -3 -14l-19 -77l-2 -12q0 -5 4 -5q3 0 33 31q5 5 11 12l36 31q39 34 40 34q3 0 9 -3.5t6 -5.5z" />
    <glyph glyph-name="Udieresisgrave" unicode="&#x1db;" horiz-adv-x="647" 
d="M826 684q0 -9 -17 -9h-12q-6 1 -18 1q-28 0 -37 -7.5t-20 -39.5q-4 -11 -24 -62l-91 -229q-85 -215 -147 -276q-77 -76 -200 -76q-80 0 -127.5 33t-47.5 88q0 58 49 179l126 310q7 18 20 47q4 7 4 12q0 17 -25 20h-30q-10 0 -10 6q0 9 16 9h9l96 -1l115 1q11 0 11 -6
q0 -7 -5 -8t-37 -2q-28 -1 -32 -5q-7 -4 -15 -19q-9 -25 -25 -64l-123 -310q-50 -126 -50 -183q0 -38 27 -62t69 -24q121 0 192 100q48 68 114 237l88 226q29 74 29 85q0 21 -37 21h-9q-8 -1 -15 -1q-9 0 -9 7q0 8 16 8h15l137 -1q9 1 20 1q10 0 10 -6zM686 795
q0 -22 -16 -37.5t-38 -15.5q-43 0 -43 40q0 24 16 40.5t40 16.5q41 0 41 -44zM517 792q0 -22 -16 -37t-39 -15q-42 0 -42 41q0 24 16.5 40t41.5 16q39 0 39 -45zM698 897q0 -8 -6 -8q-4 0 -11 12l-38 65q-25 43 -58 95h87l23 -148q2 -7 3 -16z" />
    <glyph glyph-name="udieresisgrave" unicode="&#x1dc;" horiz-adv-x="488" 
d="M498 418l-2 -5l-7 -16l-112 -261q-34 -79 -34 -98q0 -27 26 -27q37 0 82 52q11 13 15 13q6 0 6 -6q0 -24 -59 -60q-35 -21 -72 -21q-29 0 -51 16t-22 37q0 12 9 37l12 34q-67 -77 -101.5 -100t-84.5 -23q-39 0 -64 15.5t-25 40.5q0 27 22 76l103 231q4 9 17 35q3 5 3 7
q0 8 -24 8q-32 0 -32 11q0 7 7 7q8 0 23 -2t23 -2q52 0 77 9q6 2 8 2q5 0 5 -6q0 -8 -20 -50.5t-37 -87.5q-4 -11 -31 -73l-40 -92q-25 -57 -25 -81q0 -29 37 -29q39 0 101 64q70 72 116 182l64 152q5 12 11 12q-1 0 21 -2h8q27 0 35 3q5 2 7 2q5 0 5 -4zM529 536
q0 -22 -16 -37.5t-38 -15.5q-43 0 -43 40q0 24 16 40.5t40 16.5q41 0 41 -44zM360 533q0 -22 -16 -37t-39 -15q-42 0 -42 41q0 24 16.5 40t41.5 16q39 0 39 -45zM432 635q0 -8 -6 -8q-4 0 -11 12l-38 65q-25 43 -58 95h87l23 -148q2 -7 3 -16z" />
    <glyph glyph-name="Adieresismacron" unicode="&#x1de;" horiz-adv-x="627" 
d="M593 9q0 -10 -34 -11q37 1 -39 2l-76 1l-132 -1q-7 -1 -16 -1q-17 0 -17 12q0 9 11 9t22 -1h11q27 0 48 9q14 6 21 56l20 135q1 3 1 8q0 7 -36 7h-89q-47 -1 -51 -1h-16q-6 -6 -26 -30l-93 -128q-19 -26 -19 -36q0 -21 55 -21q6 0 18 1.5t18 1.5q14 0 14 -10
q0 -11 -27 -11l-55 1l-91 -2q-65 -1 -82 1.5t-17 11.5q0 8 10 8q7 0 20 -2t20 -2q34 0 57 13q16 9 65 74l289 380q26 34 79 101l88 114q10 13 17 13q10 0 10 -14q0 -23 -7 -55q-13 -60 -28 -181l-44 -356q-6 -49 -6 -54q0 -29 36 -31l59 -3q12 -1 12 -8zM460 536q0 9 -4 9
q-6 0 -11 -12.5t-9 -15.5q-6 -7 -32 -42l-107 -144q-18 -24 -47 -62q-5 -4 -6 -7q0 -8 14 -7l20 1l50 -1q74 -1 90 7l31 205q3 20 9 55q2 10 2 14zM732 816q0 -22 -16 -37.5t-38 -15.5q-43 0 -43 40q0 24 16 40.5t40 16.5q41 0 41 -44zM563 813q0 -22 -16 -37t-39 -15
q-42 0 -42 41q0 24 16.5 40t41.5 16q39 0 39 -45zM766 961l-19 -51h-237l18 51h238z" />
    <glyph glyph-name="adieresismacron" unicode="&#x1df;" horiz-adv-x="487" 
d="M501 426q0 -3 -8 -21l-132 -300q-19 -43 -19 -66q0 -26 26 -26q39 0 78 53q8 11 12 11t4 -4q0 -11 -22 -35q-44 -47 -105 -47q-31 0 -50.5 15t-19.5 39q0 15 7 35q-63 -93 -146 -93q-52 0 -85 33.5t-33 85.5q0 57 38 125t101 124q86 76 158 76q75 0 84 -72l25 53
q8 16 14 16q2 0 12 -2t14 -2q22 0 34 6q4 3 7 3q6 0 6 -7zM375 341q0 31 -18.5 50t-47.5 19q-50 0 -96 -59q-53 -67 -85 -141.5t-32 -130.5q0 -68 56 -68q32 0 69.5 35t62.5 88l78 168q13 28 13 39zM525 541q0 -22 -16 -37.5t-38 -15.5q-43 0 -43 40q0 24 16 40.5t40 16.5
q41 0 41 -44zM356 538q0 -22 -16 -37t-39 -15q-42 0 -42 41q0 24 16.5 40t41.5 16q39 0 39 -45zM561 683l-19 -51h-237l18 51h238z" />
    <glyph glyph-name="Adotmacron" unicode="&#x1e0;" horiz-adv-x="627" 
d="M593 9q0 -10 -34 -11q37 1 -39 2l-76 1l-132 -1q-7 -1 -16 -1q-17 0 -17 12q0 9 11 9t22 -1h11q27 0 48 9q14 6 21 56l20 135q1 3 1 8q0 7 -36 7h-89q-47 -1 -51 -1h-16q-6 -6 -26 -30l-93 -128q-19 -26 -19 -36q0 -21 55 -21q6 0 18 1.5t18 1.5q14 0 14 -10
q0 -11 -27 -11l-55 1l-91 -2q-65 -1 -82 1.5t-17 11.5q0 8 10 8q7 0 20 -2t20 -2q34 0 57 13q16 9 65 74l289 380q26 34 79 101l88 114q10 13 17 13q10 0 10 -14q0 -23 -7 -55q-13 -60 -28 -181l-44 -356q-6 -49 -6 -54q0 -29 36 -31l59 -3q12 -1 12 -8zM460 536q0 9 -4 9
q-6 0 -11 -12.5t-9 -15.5q-6 -7 -32 -42l-107 -144q-18 -24 -47 -62q-5 -4 -6 -7q0 -8 14 -7l20 1l50 -1q74 -1 90 7l31 205q3 20 9 55q2 10 2 14zM649 815q0 -24 -15 -39t-39 -15q-44 0 -44 44q0 23 16.5 38.5t40.5 15.5q41 0 41 -44zM764 960l-19 -51h-237l18 51h238z" />
    <glyph glyph-name="adotmacron" unicode="&#x1e1;" horiz-adv-x="487" 
d="M501 426q0 -3 -8 -21l-132 -300q-19 -43 -19 -66q0 -26 26 -26q39 0 78 53q8 11 12 11t4 -4q0 -11 -22 -35q-44 -47 -105 -47q-31 0 -50.5 15t-19.5 39q0 15 7 35q-63 -93 -146 -93q-52 0 -85 33.5t-33 85.5q0 57 38 125t101 124q86 76 158 76q75 0 84 -72l25 53
q8 16 14 16q2 0 12 -2t14 -2q22 0 34 6q4 3 7 3q6 0 6 -7zM375 341q0 31 -18.5 50t-47.5 19q-50 0 -96 -59q-53 -67 -85 -141.5t-32 -130.5q0 -68 56 -68q32 0 69.5 35t62.5 88l78 168q13 28 13 39zM441 540q0 -24 -15 -39t-39 -15q-44 0 -44 44q0 23 16.5 38.5t40.5 15.5
q41 0 41 -44zM559 682l-19 -51h-237l18 51h238z" />
    <glyph glyph-name="AEmacron" unicode="&#x1e2;" horiz-adv-x="887" 
d="M999 687q0 -6 -5 -18q-11 -25 -42 -131q-8 -28 -16 -28q-5 0 -5 7q0 6 4 20q12 41 12 72q0 37 -27.5 51t-105.5 15l-69 1q-16 0 -21 -6.5t-21 -45.5l-100 -248q19 -2 40 -2q71 0 112 39q23 22 41 65q3 7 7 7q9 0 9 -5q0 -9 -11 -28q-33 -59 -89 -224q-9 -26 -15 -26
q-7 0 -7 7q0 2 7 20q13 34 13 68q0 32 -21 44.5t-73 12.5h-23l-129 -312q-3 -4 -4 -8q1 -9 31.5 -11.5t136.5 -2.5q43 0 97 21q44 17 69.5 47.5t46.5 92.5q10 28 20 28q6 0 6 -7q0 -10 -10 -33q-17 -39 -52 -140q-8 -22 -14 -26t-31 -4l-435 1q-67 0 -67 7q0 9 42 9h24
q20 0 26.5 7t23.5 46l70 163q-19 1 -42 1q-128 0 -171 -2q-8 -4 -16.5 -12.5t-25.5 -26.5l-107 -117q-31 -34 -31 -40q0 -17 48 -17h22q9 1 21 1t12 -8q0 -11 -18 -11h-15q-7 1 -29 1q-135 0 -152 -2q-8 -1 -19 -1q-15 0 -15 12q0 8 5 8l47 -3q13 -1 42 19q6 4 70 68
l484 504q46 48 46 61q0 12 -32 12h-32q-12 0 -12 8t21 8l100 -1l144 1l196 -1q14 0 14 -7zM613 634q-20 -16 -49 -49q-49 -57 -113 -124l-159 -166q-4 -5 -14 -15l-11 -9l-7 -4q-3 -3 -3 -4q0 -6 17 -6q-4 0 7 1t34 0l42 -1q42 -1 34 -1q32 0 63 1zM986 796l-19 -51h-237
l18 51h238z" />
    <glyph glyph-name="aemacron" unicode="&#x1e3;" horiz-adv-x="654" 
d="M688 360q0 -53 -59 -88t-149 -35q-24 0 -68 5q-35 -79 -35 -140q0 -92 78 -92q65 0 119 68q9 11 16 11q5 0 5 -4q0 -13 -24 -38q-57 -60 -135 -60q-57 0 -101 34q-34 26 -43 86q-64 -120 -165 -120q-52 0 -85.5 33.5t-33.5 85.5q0 102 103 213.5t197 111.5q73 0 82 -73
l23 48q11 22 16 22q2 0 10 -2t15 -2q20 0 33 7q3 2 6 2q7 0 7 -7q0 -4 -3 -11l-10 -22q71 37 115 37q86 0 86 -70zM616 380q0 31 -31 31q-38 0 -84.5 -44.5t-78.5 -111.5h18q93 0 143 58q33 38 33 67zM374 346q0 15 -10 33q-17 30 -56 30q-68 0 -136 -112q-77 -126 -77 -217
q0 -70 54 -70q73 0 141 142l69 145q15 32 15 49zM627 537l-19 -51h-237l18 51h238z" />
    <glyph glyph-name="Gcaron" unicode="&#x1e6;" horiz-adv-x="675" 
d="M745 667q0 -3 -12 -26q-6 -12 -18 -41l-17 -42q-22 -55 -26 -63t-10 -8q-8 0 -8 7q0 4 5 24q11 44 11 70q0 41 -33 69.5t-82 28.5q-67 0 -140 -48.5t-129 -131.5q-59 -87 -95 -198q-25 -78 -25 -149q0 -75 37 -116t104 -41q103 0 144 86q28 58 28 95q0 19 -32 19h-13
q-10 0 -24 -1q-17 0 -17 9q0 10 12 10q9 0 15 -1l111 -2l129 2q17 0 17 -10t-32 -10h-33q-23 0 -30.5 -6t-14.5 -31l-16 -55q-8 -26 -63 -63q-86 -57 -199 -57q-110 0 -167 48q-64 53 -64 146q0 94 49 195t134 184q151 146 311 146q68 0 111 -37q26 -22 39 -22q18 0 31 23
q2 2 7 2t5 -5zM804 943q0 -3 -5 -6q-23 -15 -83.5 -73t-85.5 -89q-13 -19 -18 -19q-9 0 -9 10q0 3 2 12l3 13l31 142q5 23 7 26.5t11 3.5q32 0 32 -11q0 -1 -3 -14l-19 -77l-2 -12q0 -5 4 -5q3 0 33 31q5 5 11 12l36 31q39 34 40 34q3 0 9 -3.5t6 -5.5z" />
    </font>
</defs>
</svg>
