<?xml version="1.0" standalone="no"?>
<!DOCTYPE svg PUBLIC "-//W3C//DTD SVG 1.1//EN" "http://www.w3.org/Graphics/SVG/1.1/DTD/svg11.dtd" >
<svg xmlns="http://www.w3.org/2000/svg" xmlns:xlink="http://www.w3.org/1999/xlink" version="1.1">
<metadata>
Created by FontForge 20190801 at Wed Jul 12 21:27:17 2017
 By Unknown
Copyright (c) 1997 International Typeface Corporation. All rights reserved.
</metadata>
<defs>
<font id="BodoniSvtyTwoITCTT-Book" horiz-adv-x="0" >
  <font-face 
    font-family="Bodoni 72"
    font-weight="400"
    font-stretch="normal"
    units-per-em="1000"
    panose-1="0 0 4 0 0 0 0 0 0 0"
    ascent="800"
    descent="-200"
    x-height="436"
    cap-height="695"
    bbox="-471 -270 1549 1139"
    underline-thickness="46"
    underline-position="-137"
    unicode-range="U+0020-FB02"
  />
<missing-glyph horiz-adv-x="500" 
d="M63 0v746h375v-746h-375zM125 63h250v621h-250v-621z" />
    <glyph glyph-name=".notdef" horiz-adv-x="500" 
d="M63 0v746h375v-746h-375zM125 63h250v621h-250v-621z" />
    <glyph glyph-name="space" unicode=" " horiz-adv-x="186" 
 />
    <glyph glyph-name="exclam" unicode="!" horiz-adv-x="356" 
d="M234 637q-44 -258 -43 -446q0 -22 -13 -22t-13 20q1 188 -44 448q21 41 22 42q17 28 34 28q13 0 20.5 -9t31.5 -52zM231 48q0 -22 -15.5 -38t-38.5 -16t-38.5 15.5t-15.5 38.5t16 38.5t39 15.5q22 0 37.5 -16t15.5 -38z" />
    <glyph glyph-name="quotedbl" unicode="&#x22;" horiz-adv-x="533" 
d="M444 664q0 -28 -40 -77q-52 -64 -99 -159q-12 -25 -22 -25q-14 0 -14 12q0 3 3 10q35 77 60 177q15 61 29.5 82t42.5 21q40 0 40 -41zM263 664q0 -28 -40 -77q-51 -62 -99 -159q-12 -25 -22 -25q-14 0 -14 12q0 3 3 10q36 78 60 177q15 61 29.5 82t42.5 21q40 0 40 -41z
" />
    <glyph glyph-name="numbersign" unicode="#" horiz-adv-x="533" 
d="M479 434h-97l-35 -121h96v-57h-112l-52 -179h-40l52 179h-119l-51 -179h-40l52 179h-87v58h103l35 120h-103v58h120l51 179h40l-51 -179h118l52 179h40l-52 -179h80v-58zM342 434h-118l-35 -120h119z" />
    <glyph glyph-name="dollar" unicode="$" horiz-adv-x="533" 
d="M459 192q0 -76 -49.5 -130t-127.5 -65v-83q0 -15 -2.5 -18.5t-9.5 -3.5q-14 0 -14 22v81q-68 1 -112 27q-69 40 -69 106q0 33 17.5 54t45.5 21q24 0 40 -15t16 -37q0 -53 -52 -53q-9 0 -13 1t-9 1q-7 0 -7 -7q0 -29 45 -54t98 -25v289q-64 30 -108 67q-58 48 -58 122
q0 69 47 117t119 53v69q0 18 13 18t13 -20v-66q66 -3 102 -33q50 -42 50 -96q0 -26 -15.5 -43.5t-38.5 -17.5q-51 0 -51 48t53 51q9 0 9 6q0 25 -39 49q-24 15 -70 16v-249q103 -50 133 -85q44 -51 44 -117zM256 406v234q-86 -19 -86 -104q0 -51 19 -79.5t67 -50.5zM379 146
q0 53 -20.5 83.5t-76.5 59.5v-272q97 18 97 129z" />
    <glyph glyph-name="percent" unicode="%" horiz-adv-x="715" 
d="M691 155q0 -90 -70 -140q-34 -24 -84 -24q-72 0 -118.5 48t-46.5 123q0 73 45.5 120t116.5 47q66 0 106 -41q51 -53 51 -133zM573 705l-384 -705h-47l360 663q-49 -30 -112 -30q-44 0 -86 16q38 -54 38 -118q0 -70 -43 -117t-111 -47q-71 0 -117.5 48t-46.5 122
q0 71 45 119.5t112 48.5q35 0 113 -27q58 -20 100 -20q65 0 132 47h47zM258 547q0 67 -20 110q-15 33 -53 33q-78 0 -78 -150q0 -156 80 -156q39 0 56 45q15 40 15 118zM607 173q0 65 -20 108q-15 33 -54 33q-78 0 -78 -150q0 -156 81 -156q38 0 55 45q16 42 16 120z" />
    <glyph glyph-name="ampersand" unicode="&#x26;" horiz-adv-x="729" 
d="M719 417q0 -6 -6.5 -7t-46.5 -3q-31 -1 -40 -7t-13 -31q-23 -125 -87 -225q20 -32 29 -50q24 -48 46.5 -60t90.5 -15q21 -1 21 -11q0 -8 -14 -8q-25 0 -92 3q-23 1 -31 1q-33 0 -72 -4q-4 11 -34 64l-5 8q-80 -85 -209 -85q-99 0 -161 53t-62 138q0 142 176 224
q-2 3 -13 14q-51 53 -63.5 74.5t-12.5 56.5q0 71 46.5 115t120.5 44q71 0 114.5 -36.5t43.5 -95.5q0 -95 -139 -151q6 -7 50 -58q88 -101 155 -198q71 114 71 212q0 22 -9 25.5t-64 3.5q-30 0 -30 10q0 8 17 8h162q46 0 50 -1q11 -3 11 -8zM368 564q0 56 -24.5 91t-63.5 35
q-40 0 -66 -26.5t-26 -66.5q0 -74 108 -161q72 39 72 128zM453 92q-61 106 -233 298q-49 -37 -69.5 -76t-20.5 -94q0 -85 47.5 -142t118.5 -57q89 0 157 71z" />
    <glyph glyph-name="quotesingle" unicode="'" horiz-adv-x="356" 
d="M265 664q0 -28 -40 -77q-51 -62 -99 -159q-12 -25 -22 -25q-14 0 -14 12q0 3 3 10q36 78 60 177q15 61 29.5 82t42.5 21q40 0 40 -41z" />
    <glyph glyph-name="parenleft" unicode="(" horiz-adv-x="305" 
d="M249 704q0 -5 -7 -18q-87 -164 -87 -414q0 -254 85 -408q8 -15 8 -20q0 -7 -6 -7q-8 0 -33 32q-63 82 -103 194.5t-40 207.5q0 205 133 393q34 48 42 48t8 -8z" />
    <glyph glyph-name="parenright" unicode=")" horiz-adv-x="305" 
d="M239 278q0 -218 -149 -415q-20 -26 -26 -26q-8 0 -8 8q0 5 7 18q88 162 88 414q0 131 -20 224.5t-67 183.5q-8 15 -8 20q0 7 6 7q9 0 33 -31q36 -46 71 -119q73 -151 73 -284z" />
    <glyph glyph-name="asterisk" unicode="*" horiz-adv-x="533" 
d="M443 525q0 -11 -21 -9q-17 -1 -23 -3.5t-22 -17.5q-3 -4 -9 -4t-24 17q-27 25 -60 31q13 -41 45 -73q6 -6 6 -10q0 -1 -11 -16.5t-12 -36t-9 -20.5q-7 0 -17 22q-8 17 -20 23q-18 11 -18 18q0 4 9 25q11 26 11 52q0 7 -1 13q-31 -21 -53 -63q-6 -11 -12 -11q-2 0 -5 2
q-18 9 -28 9q-5 0 -28 -6q-2 -1 -8 -1q-9 0 -9 6q0 7 10 14q12 11 17 18.5t8 24.5q4 13 16 13q3 0 25 -4h8q27 0 54 11q-28 26 -78 33q-14 2 -14 12q0 7 1 12v9q0 11 -13 30q-7 10 -7 16t7 6q1 0 35 -17l4 -2l33 3q9 0 12 -24q5 -38 30 -66q10 26 10 48q0 23 -3 32
q-1 3 -1 8q0 8 14 12q24 6 37 24q10 14 17 14q8 0 8 -8q0 -5 -2.5 -16t-2.5 -17q0 -11 7 -26q3 -7 3 -10q0 -8 -19 -18q-36 -18 -54 -50q8 -1 15 -1q26 0 63 18q8 4 14 4t13 -11q10 -16 20.5 -21.5t24.5 -10.5q7 -3 7 -7z" />
    <glyph glyph-name="plus" unicode="+" horiz-adv-x="533" 
d="M474 318h-189v-186h-36v186h-190v36h190v185h36v-185h189v-36z" />
    <glyph glyph-name="comma" unicode="," horiz-adv-x="259" 
d="M216 6q0 -73 -56 -106q-40 -24 -66 -24q-8 0 -8 6t10 8q84 20 84 86q0 41 -22 55q0 -37 -37 -37q-19 0 -32.5 13.5t-13.5 33.5q0 26 17 42.5t43 16.5q36 0 58.5 -26.5t22.5 -67.5z" />
    <glyph glyph-name="hyphen" unicode="-" horiz-adv-x="305" 
d="M290 198h-275v52h275v-52z" />
    <glyph glyph-name="hyphen" unicode="&#x2010;" horiz-adv-x="305" 
d="M290 198h-275v52h275v-52z" />
    <glyph glyph-name="period" unicode="." horiz-adv-x="259" 
d="M182 47q0 -22 -15.5 -37.5t-37.5 -15.5q-23 0 -38.5 15.5t-15.5 38.5q0 22 15.5 37.5t38.5 15.5q22 0 37.5 -15.5t15.5 -38.5z" />
    <glyph glyph-name="slash" unicode="/" horiz-adv-x="489" 
d="M475 726l-413 -756h-49l413 756h49z" />
    <glyph glyph-name="zero" unicode="0" horiz-adv-x="533" 
d="M498 335q0 -89 -26.5 -168t-72.5 -127q-49 -52 -125 -52q-104 0 -171.5 102t-67.5 261q0 184 95 290q57 64 140 64q98 0 156 -89q72 -110 72 -281zM390 371q0 149 -33 246q-25 74 -88 74q-126 0 -126 -335q0 -351 133 -351q62 0 89 102q25 93 25 264z" />
    <glyph glyph-name="one" unicode="1" horiz-adv-x="533" 
d="M423 7q0 -8 -22 -8h-12h-38q-38 1 -77 1q-69 0 -88 -1t-30 -1q-24 0 -24 9t14 9q22 0 47 1q31 1 33.5 15.5t2.5 62.5v470q0 32 -2 38t-14 6q-5 0 -65 -5q-12 -1 -16 -1q-12 0 -12 7q0 8 12 9q47 5 95 28.5t77 55.5q11 9 15 9q8 0 8 -10v-19q-1 -8 -1 -18v-598
q0 -36 3.5 -42t24.5 -7l23 -1l17 -1h15q14 0 14 -9z" />
    <glyph glyph-name="two" unicode="2" horiz-adv-x="533" 
d="M493 188q0 -3 -2 -16q-5 -33 -16 -163l-1 -12q-103 5 -235 5q-71 0 -133 -2t-54 -2q-27 0 -27 10q0 8 52 50q125 102 178 166q92 111 92 261q0 101 -42 153q-32 40 -90 40q-57 0 -90 -35q-26 -27 -26 -54q0 -17 27 -18q70 -3 70 -61q0 -55 -58 -55q-37 0 -59 23t-22 63
q0 74 52 119t137 45t141 -54q65 -63 65 -164q0 -111 -74 -204.5t-249 -203.5q66 2 166 2q83 0 105 2.5t39 12.5q14 9 24 67q7 40 20 40q10 0 10 -15z" />
    <glyph glyph-name="three" unicode="3" horiz-adv-x="533" 
d="M474 195q0 -83 -67 -142q-74 -65 -189 -65q-94 0 -138 44q-28 28 -28 64q0 31 19.5 49.5t52.5 18.5q26 0 43 -15t17 -38q0 -35 -47 -55q-19 -8 -19 -16q0 -13 26 -23.5t57 -10.5q76 0 123.5 52t47.5 136q0 169 -152 169q-15 0 -22 -1h-7q-13 0 -13 9q0 7 24 11
q70 10 108 51.5t38 106.5q0 64 -33 102.5t-89 38.5q-41 0 -71.5 -17.5t-30.5 -40.5q0 -9 14 -12q66 -16 66 -55q0 -51 -53 -51q-34 0 -54.5 20t-20.5 53q0 54 46.5 90.5t129.5 36.5q95 0 145 -49t50 -114q0 -90 -85 -133q-30 -15 -97 -25v-7q83 -3 134 -37q75 -50 75 -145z
" />
    <glyph glyph-name="four" unicode="4" horiz-adv-x="533" 
d="M503 110q0 -10 -10 -10q-9 0 -11.5 11.5t-7.5 62.5q-2 8 -8 12q-12 7 -53 7q-11 0 -21 -1l1 -157q5 -12 16.5 -15t56.5 -3q22 0 26 -4q1 -2 1 -6q0 -7 -40 -7t-224 -2q-10 -1 -22 -1q-20 0 -20 10t29 9q34 -1 62 4q12 2 15 10.5t3 37.5v121q-20 1 -46 1h-41q-14 0 -31 -1
h-19l-127 3q-14 1 -14 8q0 5 147 207q46 65 203 286q7 10 14 10q10 0 10 -19v-470h10q34 0 53.5 4t19.5 20q-1 63 -1 43q1 36 11 36q14 0 14 -28v-45l1 -72q1 -37 2 -46.5t1 -15.5zM302 556q-10 -16 -42 -61q-44 -61 -133 -182l-71 -97q37 -3 159 -3q43 0 81 1v71
q0 50 3 135q3 100 3 136z" />
    <glyph glyph-name="five" unicode="5" horiz-adv-x="533" 
d="M470 225q0 -128 -98 -196q-59 -41 -153 -41t-138 49q-24 27 -24 64q0 31 20 50.5t52 19.5q26 0 43.5 -15t17.5 -37q0 -37 -49 -56q-22 -8 -22 -18q0 -16 29.5 -28.5t65.5 -12.5q70 0 105 48q48 66 48 178q0 82 -38 127t-108 45q-54 0 -119 -41q6 225 9 284q1 34 15 41.5
t76 7.5h34q24 -1 38 -1h34q69 0 80.5 2.5t14.5 16.5q4 23 14 23t10 -11q0 -7 -1 -11l-2 -23q-5 -56 -20.5 -69.5t-75.5 -13.5l-191 1q-4 -34 -7 -205q57 26 119 26q103 0 162 -54.5t59 -149.5z" />
    <glyph glyph-name="six" unicode="6" horiz-adv-x="533" 
d="M487 223q0 -97 -59 -166t-141 -69q-103 0 -167 85t-64 221q0 125 54.5 228t145.5 150q76 39 166 39q21 0 21 -8q0 -7 -14 -8q-90 -8 -159 -65q-90 -74 -106 -252q55 52 124 52q56 0 105 -30q94 -57 94 -177zM384 220q0 186 -115 186q-52 0 -80 -44.5t-28 -124.5
q0 -115 41 -186q26 -45 76 -45q106 0 106 214z" />
    <glyph glyph-name="seven" unicode="7" horiz-adv-x="533" 
d="M523 685q0 -6 -116 -187q-65 -102 -89 -159.5t-24 -114.5q0 -29 14 -114q5 -30 5 -51q0 -71 -53 -71q-63 0 -63 109q0 101 93 266q59 104 153 242h-152q-118 0 -136 -1q-22 -1 -30.5 -7t-12 -16.5t-16.5 -70.5q-4 -12 -12 -12q-10 0 -10 12t5 39q11 61 14 104q2 31 13 43
q7 0 41 -2q76 -4 110 -4l207 2q8 0 17 1h10q32 0 32 -8z" />
    <glyph glyph-name="eight" unicode="8" horiz-adv-x="533" 
d="M494 190q0 -100 -83 -161q-56 -41 -139 -41q-89 0 -150 40q-83 54 -83 152q0 149 161 189v5q-61 17 -95.5 57.5t-34.5 96.5q0 78 53.5 127.5t138.5 49.5q75 0 123 -36q70 -52 70 -134q0 -59 -35 -105.5t-87 -56.5l1 -4q160 -32 160 -179zM356 533q0 89 -32 131
q-19 25 -61 25q-94 0 -94 -157q0 -153 101 -153q45 0 63 33q23 43 23 121zM392 180q0 182 -122 182q-61 0 -95 -46.5t-34 -128.5q0 -85 35.5 -134t97.5 -49q53 0 78 30q40 48 40 146z" />
    <glyph glyph-name="nine" unicode="9" horiz-adv-x="533" 
d="M477 397q0 -131 -60.5 -237.5t-158.5 -147.5q-72 -30 -144 -30q-26 0 -26 7q0 6 14 8q169 22 232 168q25 59 35 150q-55 -52 -124 -52q-66 0 -120 40q-79 58 -79 171q0 96 58.5 163.5t141.5 67.5q102 0 166.5 -86t64.5 -222zM372 463q0 114 -42 180q-29 45 -79 45
q-103 0 -103 -216q0 -185 115 -185q51 0 80 46.5t29 129.5z" />
    <glyph glyph-name="colon" unicode=":" horiz-adv-x="259" 
d="M182 390q0 -22 -15 -37.5t-38 -15.5t-38.5 15.5t-15.5 38.5q0 22 15.5 37.5t38.5 15.5q22 0 37.5 -15.5t15.5 -38.5zM182 47q0 -22 -15.5 -37.5t-37.5 -15.5q-23 0 -38.5 15.5t-15.5 38.5q0 22 15.5 37.5t38.5 15.5q22 0 37.5 -15.5t15.5 -38.5z" />
    <glyph glyph-name="semicolon" unicode=";" horiz-adv-x="259" 
d="M185 391q0 -23 -15.5 -38.5t-37.5 -15.5q-23 0 -38.5 15.5t-15.5 38.5q0 22 15.5 37.5t38.5 15.5q22 0 37.5 -15.5t15.5 -37.5zM219 6q0 -73 -56 -106q-41 -24 -65 -24q-9 0 -9 6t10 8q84 20 84 88q0 38 -20 53v-4q0 -35 -39 -35q-21 0 -35 14.5t-14 35.5q0 26 18 43.5
t45 17.5q36 0 58.5 -27t22.5 -70z" />
    <glyph glyph-name="less" unicode="&#x3c;" horiz-adv-x="542" 
d="M486 66l-429 287v7l429 275v-46l-366 -233l366 -244v-46z" />
    <glyph glyph-name="equal" unicode="=" horiz-adv-x="533" 
d="M474 367h-415v36h415v-36zM474 269h-415v36h415v-36z" />
    <glyph glyph-name="greater" unicode="&#x3e;" horiz-adv-x="542" 
d="M486 353l-429 -287v46l366 244l-366 233v46l429 -275v-7z" />
    <glyph glyph-name="question" unicode="?" horiz-adv-x="413" 
d="M375 552q0 -54 -27 -99q-14 -23 -27 -36.5t-74 -65.5q-73 -63 -73 -109q0 -16 12 -55q1 -3 1 -9q0 -9 -8 -9q-11 0 -21.5 29t-10.5 59q0 40 16 75.5t59 90.5q64 82 64 142q0 55 -29 86.5t-79 31.5q-46 0 -77 -32.5t-31 -81.5q0 -11 3 -11q1 2 6 10q10 19 37 19
q45 0 45 -46q0 -48 -52 -48q-31 0 -49 20.5t-18 54.5q0 61 44.5 100t115.5 39q78 0 125.5 -42.5t47.5 -112.5zM233 48q0 -22 -15.5 -38t-38.5 -16q-22 0 -38 16t-16 38q0 23 16 38.5t39 15.5q22 0 37.5 -16t15.5 -38z" />
    <glyph glyph-name="at" unicode="@" horiz-adv-x="990" 
d="M936 402q0 -153 -119 -249q-82 -66 -188 -66q-81 0 -81 57q0 5 3 21q-59 -80 -142 -80q-52 0 -85 35.5t-33 90.5q0 102 103.5 211.5t199.5 109.5q74 0 85 -65l1 4q13 28 19 42t15 14q5 0 16.5 -2t17.5 -2q8 0 20 5t18 5t6 -7t-24 -59l-30 -65q-12 -28 -37 -85l-41 -90
q-29 -64 -29 -89q0 -24 31 -24q34 0 76 20.5t75 53.5t53.5 89.5t20.5 115.5q0 130 -87.5 212.5t-236.5 82.5q-179 0 -295 -126t-116 -319q0 -166 93 -269.5t242 -103.5q169 0 300 109q68 56 102 121q6 12 17 12q13 0 13 -10q0 -17 -36 -60q-165 -199 -411 -199
q-175 0 -291.5 112t-116.5 280q0 193 150 335q148 139 342 139q91 0 172 -29t130 -79q78 -80 78 -199zM664 447q0 23 -22 44q-17 16 -44 16q-58 0 -121 -95q-87 -132 -87 -233q0 -66 50 -66q73 0 142 146l54 114q28 59 28 74z" />
    <glyph glyph-name="A" unicode="A" horiz-adv-x="602" 
d="M647 7q0 -9 -15 -9q-10 0 -18 1l-127 2l-127 -2q-7 -1 -15 -1q-20 0 -20 10q0 11 27 11q88 1 88 18q0 1 -2 8l-8 27l-5 14q-9 31 -44 137h-214q-60 -160 -60 -184q0 -14 12 -17q3 -1 50 -4q29 -1 29 -10q0 -10 -26 -10q-46 0 -107 4q-15 1 -31 1t-31 -2q-8 -1 -13 -1
q-14 0 -14 9t31.5 10t45.5 9.5t22 32.5q129 368 210 591q2 12 8 27l5 18q3 11 8 11q3 0 5 -6q13 -39 59 -163q36 -97 179 -487q8 -22 20.5 -28t51.5 -7q26 -1 26 -10zM375 246q-16 45 -53 149l-48 137q-42 -110 -101 -286h202z" />
    <glyph glyph-name="B" unicode="B" horiz-adv-x="571" 
d="M524 182q0 -102 -93 -151q-45 -24 -129 -30q-23 -1 -136 -1h-122q-17 0 -17 9t31 9q36 0 42.5 7.5t6.5 45.5v541q0 44 -4 51q-7 12 -51 13q-27 0 -27 10q0 9 25 9h12q11 -1 20 -1l195 -2q108 -1 161 -36q62 -41 62 -119q0 -68 -51 -111.5t-143 -54.5v-6q91 -6 142 -38
q76 -48 76 -145zM390 527q0 96 -44 128q-23 17 -87 17q-17 0 -53 -3v-290h9l55 2q57 2 88.5 40.5t31.5 105.5zM419 193q0 126 -102 156q-30 9 -111 9v-298q0 -29 6 -33q10 -7 56 -7q69 0 110 44t41 129z" />
    <glyph glyph-name="C" unicode="C" horiz-adv-x="653" 
d="M608 223q0 2 -2 -27q-4 -58 -4 -112q0 -6 2 -24.5t2 -44.5v-9q0 -13 -8 -13t-14 15q-14 33 -28 43q-72 -63 -173 -63q-147 0 -243.5 102.5t-96.5 258.5q0 157 88.5 256.5t228.5 99.5q51 0 81.5 -8.5t75.5 -34.5q22 -13 33 -13q9 0 17 16q13 28 21 28t8 -8q0 -4 -2 -13
q-11 -48 -11 -180q0 -19 -3 -22t-8 -3q-10 0 -13 19q-13 80 -37 119q-49 80 -154 80q-81 0 -128 -54q-85 -97 -85 -284q0 -167 70 -259q61 -80 162 -80q52 0 95 25.5t66 69.5q26 51 37 111q4 24 13 24q10 0 10 -15z" />
    <glyph glyph-name="D" unicode="D" horiz-adv-x="716" 
d="M674 346q0 -176 -123 -274q-90 -72 -241 -72q-4 0 -35.5 1t-91.5 1h-50l-79 -1q-7 -1 -15 -1q-19 0 -19 10q0 9 32 9q41 0 51 15q4 7 4 38v539q0 49 -7.5 57t-51.5 8q-23 0 -23 11q0 8 17 8q-1 0 22 -1t45 -1h107q180 0 255 -25q91 -30 147 -118.5t56 -203.5zM562 350
q0 166 -65 243.5t-203 77.5q-67 0 -81 -14q-6 -7 -6 -48v-532q0 -28 1.5 -34t8.5 -10q24 -12 101 -12q108 0 174 76q70 80 70 253z" />
    <glyph glyph-name="E" unicode="E" horiz-adv-x="582" 
d="M562 162q0 -4 -2 -49t-2 -86v-33q-98 5 -388 5q-35 0 -69 -1h-46h-10q-19 0 -19 9q0 6 6 7q3 0 38 3q26 2 31.5 11t5.5 47v562q0 29 -8.5 34.5t-54.5 5.5q-16 0 -16 9t22 9l171 -1q9 0 113 1h140q30 0 55 4q2 -43 9 -119l4 -43q1 -5 1 -13q0 -10 -9 -10q-11 0 -16 25
q-19 90 -62 114q-32 18 -168 18h-82v-293h24q112 0 136.5 17t33.5 99q2 21 11 21q11 0 11 -18t-2 -53t-2 -53q0 -107 4 -147q1 -10 1 -17q0 -13 -11 -13q-7 0 -9.5 8.5t-8.5 55.5q-8 59 -49 73q-18 6 -94 6h-45v-336q220 0 258 9q66 15 75 128q2 25 13 25q10 0 10 -21z" />
    <glyph glyph-name="F" unicode="F" horiz-adv-x="543" 
d="M543 528q0 -14 -10 -14t-14 25q-12 72 -49 105q-24 21 -74 26q-18 2 -80 2q-46 0 -110 -3v-292q128 -1 158 16.5t36 98.5q2 23 12 23t10 -15q0 -9 -1 -15q-3 -69 -3 -128q0 -76 4 -120q1 -4 1 -12q0 -12 -10 -12q-8 0 -10 6t-7 46q-8 61 -31.5 76t-93.5 15q-37 0 -65 -2
l1 -102l-2 -196q0 -29 23 -37q11 -4 49 -3q16 0 16 -8q0 -9 -20 -9h-10q-14 0 -38 1h-31l-149 -1q-19 0 -19 8t34.5 10t40.5 9.5t6 46.5l-1 574q-1 18 -10.5 22.5t-51.5 5.5q-16 0 -16 11q0 10 18 10h16q-2 0 96.5 -1t161.5 -1q169 0 207 8q1 -13 6 -75q3 -42 8 -75
q2 -14 2 -24z" />
    <glyph glyph-name="G" unicode="G" horiz-adv-x="665" 
d="M687 211q0 -9 -9 -9l-23 1q-46 2 -52 -16q-4 -12 -4 -87v-32q-51 -44 -98.5 -62t-113.5 -18q-158 0 -251 94.5t-93 256.5q0 164 91 265t240 101q65 0 142 -36q23 -11 38 -11q19 0 25 24q5 14 12 14q8 0 8 -8q0 -3 -2 -21q-6 -57 -6 -82l1 -65q1 -35 1 -31q-2 -24 -13 -24
q-9 0 -10 14q-5 97 -56 152.5t-134 55.5q-104 0 -164.5 -93t-60.5 -253q0 -154 61.5 -244.5t166.5 -90.5q80 0 110 46q15 23 15 83q0 50 -9.5 59t-65.5 8q-14 0 -18 1.5t-4 6.5q0 11 22 11h18q15 -3 106 -2l84 1q7 0 15 1h11q20 0 20 -10z" />
    <glyph glyph-name="H" unicode="H" horiz-adv-x="712" 
d="M684 9q0 -9 -19 -9l-138 1q-14 0 -41 -1t-40 -1q-20 0 -20 8t47 11q25 2 29 8.5t4 46.5v292h-301v-283q0 -45 7 -53t47 -11q26 -2 26 -9q0 -9 -20 -9h-9q-24 0 -50.5 1t-31.5 1q-14 0 -42 -1t-84 -1q-20 0 -20 8t20 10q13 1 27 2q22 2 28 10q3 5 3 56v528q0 45 -4.5 53
t-31.5 9q-31 2 -36.5 3t-5.5 8q0 8 13 8q4 0 17 -1q25 -2 118 -2q51 0 71 1q7 1 18 1q18 0 18 -10q0 -9 -32.5 -9t-39 -7.5t-6.5 -47.5v-230h301v215q0 53 -8 62.5t-56 8.5q-15 0 -15 9t17 9h5h49q36 -1 54 -1q61 0 82.5 1t27.5 1q21 0 21 -9t-44 -10q-13 0 -19 -2
q-10 -3 -12.5 -11t-2.5 -47v-532q0 -48 5 -56q10 -11 58 -11q16 2 16 -8z" />
    <glyph glyph-name="I" unicode="I" horiz-adv-x="314" 
d="M288 8q0 -8 -12 -8h-10q-6 3 -136 3q-25 0 -50 -2q-13 -1 -40 -1q-13 0 -13 9q0 8 26 9q40 1 47 9.5t7 57.5v526q0 49 -5 55q-6 10 -55 12q-19 1 -19 8q0 9 12 9l135 -2q15 0 58 1l38 1q16 0 16 -9q0 -8 -44 -10q-25 -1 -30.5 -9t-5.5 -42v-534q0 -57 5 -62
q11 -11 65 -13q11 0 11 -8z" />
    <glyph glyph-name="J" unicode="J" horiz-adv-x="328" 
d="M311 685q0 -8 -21 -8q-38 0 -47 -2.5t-10.5 -8.5t-1.5 -39v-321l1 -93q1 -69 0 -113q-2 -62 -9 -93q-12 -52 -59 -89.5t-100 -37.5q-39 0 -63 20.5t-24 53.5q0 57 56 57q23 0 38.5 -14t15.5 -36q0 -19 -13 -34q-9 -11 -9 -17q0 -9 15 -9q32 0 45 39q7 21 7 123v571
q0 32 -19 40q-9 3 -48 3q-18 0 -22.5 2t-4.5 6q0 10 16 10q3 0 27 -1q31 -1 51 -1l147 2q32 0 32 -10z" />
    <glyph glyph-name="K" unicode="K" horiz-adv-x="666" 
d="M694 8q0 -9 -14 -9h-8l-120 1l-117 -1q-6 -1 -13 -1q-19 0 -19 8t25 10q52 5 52 17q0 13 -273 325v-289q0 -35 11 -43.5t59 -8.5q11 0 11 -10q0 -9 -14 -9q-10 0 -18 1l-139 2q-13 0 -30.5 -1.5t-35.5 -1.5h-9q-15 0 -15 9q0 10 37 11q34 1 40 15q3 5 3 63l-1 557
q-1 21 -54 21q-24 0 -24 11q0 9 17 9q5 0 13 -1q16 -2 89 -2q78 0 99 2q11 1 23 1q18 0 18 -11q0 -6 -5.5 -7.5t-34.5 -2.5t-34.5 -8t-5.5 -45v-244l85 85q193 193 193 201q0 13 -47 12q-30 -1 -30 10q0 7 14 8t97 1h55q35 0 40 -1q10 -2 10 -10q0 -11 -22 -11q-46 1 -59 -2
t-26 -16q-65 -68 -198 -204l-26 -26l-13 -14q6 -7 50 -54q84 -87 241 -279q33 -40 45.5 -48t48.5 -10q29 -2 29 -10z" />
    <glyph glyph-name="L" unicode="L" horiz-adv-x="564" 
d="M555 79q0 -26 -3 -86h-11q-6 0 -29 2t-52 2l-416 3q-17 0 -17 9q0 7 27 9q38 2 45.5 8.5t7.5 37.5v562q0 37 -7.5 43t-53.5 6q-19 0 -19 11q0 9 12 9h9q33 -3 131 -3q9 0 35 1.5t43 1.5h11q18 0 18 -10q0 -6 -5.5 -7.5t-34.5 -2.5t-34.5 -9.5t-5.5 -52.5v-590
q27 -1 75 -1q117 0 165 12t65 45t20 89q1 13 12 13q13 0 12 -15l-1 -25v-9q1 -7 1 -14v-39z" />
    <glyph glyph-name="M" unicode="M" horiz-adv-x="755" 
d="M747 8q0 -10 -21 -10h-11q-14 0 -51 1t-57 1q-30 0 -70 -1h-54h-7q-21 0 -21 9q0 10 29 10q51 0 62 11q5 5 5 67v518q0 -1 -11 -35q-40 -121 -116 -364l-47 -159q-14 -47 -20 -47q-7 0 -15 24q-29 91 -164 454l-40 107q1 -19 1 -52v-325q0 -183 3 -185q7 -13 48 -13
q33 0 33 -9q0 -10 -21 -10q-13 0 -24 1q-14 1 -25 1l-115 -3q-18 0 -18 9q0 10 57 11q24 0 28 8t4 52v479q0 83 -2 90q-4 14 -17 19t-56 8q-16 1 -16 9q0 11 29 11q4 0 17 -1h52q59 0 83 1q5 -13 59 -157q23 -60 129 -350q19 65 39 128l106 331q9 29 16 48l150 1q33 0 38 -3
t5 -9q0 -10 -17 -10q-28 0 -38 -2q-24 -4 -33 -16q-5 -7 -5 -117v-465q0 -40 8 -47q13 -9 65 -9h6q20 0 20 -10z" />
    <glyph glyph-name="N" unicode="N" horiz-adv-x="656" 
d="M642 685q0 -10 -25 -9l-22 1h-18q-16 0 -19 -5.5t-3 -33.5v-576q0 -53 -1 -62t-6 -9q-6 0 -14 11l-128 187q-111 163 -270 407l1 -558q1 -13 15 -16.5t67 -4.5q13 0 13 -8q0 -10 -26 -10q-9 0 -57 3q-16 1 -31 1q1 0 -17.5 -2t-56.5 -2h-10q-23 0 -23 9t20 9
q59 1 68.5 7.5t9.5 42.5v493q0 83 -34 104q-16 10 -57 10q-26 0 -26 10q0 9 15 9q20 0 51 -1t33 -1q3 0 28 1q33 0 64 1l345 -513v445q0 31 -1 37.5t-8 10t-48 3.5q-36 0 -36 9q0 10 24 10h35h28q16 -1 19 -1q1 0 18 1h30h31q22 0 22 -10z" />
    <glyph glyph-name="O" unicode="O" horiz-adv-x="720" 
d="M678 343q0 -149 -89.5 -252t-219.5 -103q-138 0 -232 104.5t-94 257.5q0 156 90.5 255.5t231.5 99.5q133 0 223 -104t90 -258zM566 338q0 183 -75 285q-47 64 -131 64q-80 0 -124 -49q-81 -90 -81 -293q0 -161 56.5 -250t158.5 -89q95 0 143 84q53 93 53 248z" />
    <glyph glyph-name="P" unicode="P" horiz-adv-x="504" 
d="M498 528q0 -97 -83 -151q-52 -34 -132 -34q-34 0 -77 7v-284q0 -23 2 -29q5 -14 22 -17q29 -4 56 -4q11 0 11 -7q0 -10 -14 -10q-6 0 -10 1q-55 -1 -207 -1h-13q-30 0 -30 10q0 7 21 7q47 0 54 9q8 4 9 20v590q0 31 -17 38q-10 4 -35 4h-10q-3 -1 -7 -1q-15 0 -15 9
q0 10 28 10h220q114 0 167 -40q60 -45 60 -127zM393 526q0 150 -126 150q-42 0 -55 -14q-6 -6 -6 -31v-266q8 -1 18 -1q66 0 112 29q57 36 57 133z" />
    <glyph glyph-name="Q" unicode="Q" horiz-adv-x="722" 
d="M679 342q0 -137 -73 -233t-195 -118v-31q0 -79 29.5 -108.5t107.5 -29.5q9 0 26.5 1.5t26.5 1.5q16 0 16 -11q0 -8 -30 -14q-54 -10 -112 -10q-97 0 -142 57q-25 32 -25 112v23l1 13q-96 24 -151 74q-115 104 -115 279q0 96 40 179.5t108.5 130.5t165.5 47q116 0 193 -66
q61 -52 95 -130.5t34 -166.5zM567 335q0 182 -70 284q-47 69 -133 69q-101 0 -155 -88.5t-54 -254.5q0 -165 55.5 -253t159.5 -88q113 0 162 116q35 83 35 215z" />
    <glyph glyph-name="R" unicode="R" horiz-adv-x="588" 
d="M594 30q0 -42 -70 -42q-78 0 -122 65q-19 28 -24.5 54t-16.5 132q-6 64 -41 90.5t-114 28.5v-315q0 -20 32 -25q9 -1 46 -2q13 0 13 -8q0 -9 -17 -9h-12q-9 1 -87 1q-15 0 -51 -1h-46h-39q-22 0 -22 9q0 7 29 8q47 1 51 12q4 5 4 39v552q0 40 -8.5 48t-51.5 9
q-25 0 -25 9q0 10 16 10q3 0 9 -1l133 -3q20 0 56 1q40 2 56 2q93 0 147.5 -41.5t54.5 -112.5q0 -70 -56 -115.5t-152 -53.5q-9 -1 -10 -3q0 -4 10 -4q105 -18 144.5 -73.5t52.5 -200.5q8 -82 56 -82q15 0 15 6q0 1 -1 2q-5 11 -5 18q0 21 22 21q24 0 24 -25zM387 531
q0 143 -124 143q-33 0 -45 -9t-12 -32v-254q96 -1 138.5 35t42.5 117z" />
    <glyph glyph-name="S" unicode="S" horiz-adv-x="498" 
d="M469 195q0 -86 -65.5 -146.5t-157.5 -60.5q-54 0 -129 33q-20 9 -30 9q-12 0 -15 -29q-1 -15 -13 -15q-10 0 -10 12q0 8 1 12q8 61 8 113q0 10 -2 56q-1 6 -1 16q0 15 12 15q10 0 14 -24q26 -178 169 -178q61 0 94.5 34.5t33.5 97.5q0 56 -32.5 95.5t-111.5 78.5
q-95 47 -132 91t-37 109q0 83 53.5 137t135.5 54q34 0 94 -23q21 -8 31 -8q11 0 14.5 4t6.5 21q2 10 11 10q10 0 10 -12q0 -8 -1 -12q-3 -24 -3 -58q0 -48 5 -76l1 -16q1 -11 -9 -11q-11 0 -15 23q-11 59 -52 98.5t-92 39.5q-50 0 -79.5 -32t-29.5 -87q0 -64 43 -103
q24 -22 104 -62q94 -47 135 -95.5t41 -110.5z" />
    <glyph glyph-name="T" unicode="T" horiz-adv-x="586" 
d="M571 517q0 -13 -12 -13t-17 26l-4 36q-7 36 -23 61q-21 33 -69 42q-31 6 -50 5q-47 -2 -57 -3v-603q0 -36 19 -45q10 -5 56 -6q12 -1 12 -9q0 -9 -16 -9q-8 0 -14 1q-60 2 -85 2q-33 0 -62 -1t-74 -1q-23 0 -23 8q0 9 43 10q31 0 40 13q5 8 5 41v599q-99 -1 -123 -10
q-63 -23 -74 -123q-3 -30 -14 -30q-12 0 -12 21q0 11 1 22l2 23q3 46 9 121h45l204 -3q36 -1 112 1l166 3q2 -56 13 -166q0 -3 1 -7.5t1 -5.5z" />
    <glyph glyph-name="U" unicode="U" horiz-adv-x="666" 
d="M657 685q0 -9 -18 -9q-3 0 -20 1q-5 1 -14 1q-25 0 -30 -13q-2 -7 -2 -23v-375q0 -146 -54.5 -212.5t-175.5 -66.5q-145 0 -204 82q-39 55 -39 181l-1 401q-3 18 -24 22q-6 1 -37 1q-17 2 -17 10q0 9 14 9h18q5 0 23 -1h29l143 1q5 1 12 1q17 0 17 -11q0 -7 -6 -8t-40 -2
q-14 0 -19 -2q-10 -4 -11 -14q-1 -4 -1 -57v-358q0 -132 42 -180t125 -48q152 0 172 173q3 26 3 220v57l1 80l-1 69v22q1 13 1 11q0 22 -21 27q-7 2 -41 2q-20 0 -20 11q0 9 14 9q8 0 13 -1q12 -1 87 -1q11 0 25 1h19h15q23 0 23 -10z" />
    <glyph glyph-name="V" unicode="V" horiz-adv-x="633" 
d="M654 687q0 -8 -19 -9q-44 -1 -59 -13t-31 -56l-34 -93q-123 -337 -173 -517q-3 -12 -10 -12q-8 0 -33 75q-45 137 -70 206q-27 76 -80 227l-48 135q-10 28 -22 37.5t-40 10.5q-33 1 -39.5 2t-6.5 8q0 9 20 9h9q18 0 62.5 -1.5t63.5 -1.5q5 0 38.5 1.5t95.5 1.5h14
q18 0 18 -10q0 -11 -36 -12l-61 -2q-21 -1 -21 -13q0 -2 2 -8l8 -26q2 -8 97 -282q16 -47 61 -179q165 467 165 491t-49 22l-31 -1q-12 0 -12 8q0 10 30 10h34q28 -1 41 -1h32l66 1q18 0 18 -8z" />
    <glyph glyph-name="W" unicode="W" horiz-adv-x="912" 
d="M941 687q0 -9 -34 -10q-38 -1 -50.5 -25t-38.5 -102q-45 -137 -80 -233q-60 -164 -109 -317q-4 -13 -10 -13q-5 0 -9.5 10t-26.5 70q-28 78 -61 157q-26 62 -51 128q-70 -169 -139 -353q-4 -12 -10 -12q-5 0 -12 17q-31 74 -230 613q-14 38 -21 47.5t-35 10.5
q-48 2 -48 14q0 9 16 9q7 0 12 -1q53 -3 114 -3q12 0 41.5 1.5t76.5 1.5h11q17 0 17 -9q0 -11 -31 -12q-62 -2 -62 -16q0 -28 184 -521q67 169 100 249l-99 256q-8 21 -18.5 27t-38.5 7t-28 9q0 11 21 11q16 0 39 -2t80 -2h76l110 -2q37 0 89 4q6 1 14 1q24 0 24 -10
q0 -9 -17 -9h-17q-45 0 -68 -12q-10 -5 -37 -72q-12 -28 -40 -95l-18 -45q7 -20 44 -111q48 -116 79 -199q56 162 132 383q40 117 40 130q0 19 -35 19q-49 0 -49 11q0 10 20 10q17 0 27 -1q22 -2 40 -2l80 1q30 0 33 -2.5t3 -5.5zM580 657q0 18 -62 18h-12l-17 -1
q-36 -2 -36 -13q0 -2 59 -173q23 50 54 132q4 11 12 29z" />
    <glyph glyph-name="X" unicode="X" horiz-adv-x="625" 
d="M644 9q0 -9 -28 -9q-34 0 -69.5 1t-69.5 1q-44 0 -102 -2q-29 -1 -43 -1q-29 0 -29 11q0 10 23 9l45 -1q24 -1 29 1q15 3 15 19q0 15 -25 65l-107 216l-126 -213q-33 -56 -33 -66q0 -18 33 -21q-2 0 45 0q18 0 18 -10q0 -9 -15 -9l-113 1l-85 -1q-16 0 -16 9t26 12l36 4
q15 4 25 13q19 17 123 196q38 66 68 115l-114 214q-35 66 -48.5 85.5t-28.5 25.5q-16 3 -63 3q-12 0 -12 8q0 11 16 11q22 0 91 -2q34 -1 47 -1q117 0 129 2h14q21 0 21 -8q0 -11 -36 -11q-67 1 -67 -16q0 -18 114 -234q41 60 90 142.5t49 92.5q0 15 -55 15q-27 0 -27 9
q0 10 19 10q13 0 38 -1t38 -1q5 0 46.5 1.5t48.5 1.5h9q17 0 17 -9t-13 -9q-2 0 -32 -1q-34 -1 -46.5 -12t-42.5 -64q-39 -70 -114 -185l-11 -17q7 -13 135 -263q44 -86 63 -102.5t75 -15.5q25 0 25 -9z" />
    <glyph glyph-name="Y" unicode="Y" horiz-adv-x="607" 
d="M618 686q0 -8 -17 -8q-55 -1 -68 -19q-12 -11 -86 -170q-33 -71 -62 -125q-20 -37 -23 -50.5t-3 -58.5v-189q0 -33 8.5 -39t59.5 -9q27 -2 27 -10t-14 -8h-12l-140 3q-59 0 -97 -2q-6 -1 -14 -1q-14 0 -14 9t23 10q55 2 65 10t10 48v211q-10 22 -58 117l-100 198
q-15 29 -36 65q-11 10 -47.5 10t-36.5 11q0 8 16 8q21 0 84 -2q36 -1 52 -1l116 1q7 1 16 1q18 0 18 -10q0 -9 -34 -9q-62 0 -62 -22q0 -17 63 -137l91 -173q25 45 57 111l59 119q33 64 33 84q0 13 -17 15q-35 5 -47 4q-22 -1 -22 10q0 8 19 8l58 -1l33 1q102 3 102 -10z
" />
    <glyph glyph-name="Z" unicode="Z" horiz-adv-x="562" 
d="M532 215q0 -7 -1 -11l-5 -33q-7 -44 -18 -129q-2 -14 -5 -44q7 0 -45.5 1t-112.5 1h-74q-142 0 -203 -6q-5 -1 -15 -1q-15 0 -15 8l2 6q2 3 24 46q68 132 259 489q39 73 64 126q-23 5 -100 5q-122 0 -154 -50q-8 -13 -20.5 -53.5t-16.5 -69.5q-3 -21 -15 -21
q-10 0 -10 10q0 8 1 12l7 48q3 23 8 50l7 41q4 23 12 59q60 -6 188 -6q43 0 92 1.5t86 1.5h16q9 0 16 1q-5 -16 -37 -82q-5 -15 -275 -524q-12 -23 -36 -68q48 -3 117 -3q66 0 93 4q54 9 83 38q43 43 58 148q2 17 13 17q12 0 12 -12z" />
    <glyph glyph-name="bracketleft" unicode="[" horiz-adv-x="305" 
d="M277 -135q0 -11 -30 -11h-158v841h156q25 0 25 -12q0 -7 -4 -8.5t-29 -1.5q-53 0 -64 -5q-7 -4 -8 -10t-1 -37v-692q0 -39 7.5 -46t49.5 -7h39q17 0 17 -11z" />
    <glyph glyph-name="backslash" unicode="\" horiz-adv-x="489" 
d="M475 -30h-49l-413 756h49z" />
    <glyph glyph-name="bracketright" unicode="]" horiz-adv-x="305" 
d="M217 -146h-156q-32 0 -32 11t20 11q63 0 77 3q11 2 13.5 8.5t2.5 33.5v694q0 38 -2.5 46t-14.5 10q-20 3 -65 3q-24 0 -24 10q0 11 23 11h158v-841z" />
    <glyph glyph-name="asciicircum" unicode="^" horiz-adv-x="533" 
d="M469 325h-99q-72 94 -140 258q-36 -99 -89 -180q-55 -84 -71 -84q-11 0 -11 11q0 8 12 23q78 96 146 278q21 56 26.5 66t16.5 10q10 0 15.5 -9t30.5 -68q75 -178 163 -305z" />
    <glyph glyph-name="underscore" unicode="_" horiz-adv-x="520" 
d="M497 -137h-474v46h474v-46z" />
    <glyph glyph-name="grave" unicode="`" horiz-adv-x="501" 
d="M286 510q0 -5 -6 -5q-10 0 -70 63l-91 95h17l29 1h53l41 -89q0 -1 11 -26l14 -33q2 -4 2 -6z" />
    <glyph glyph-name="a" unicode="a" horiz-adv-x="397" 
d="M429 45q0 -17 -35.5 -35.5t-68.5 -18.5q-69 0 -72 71q-38 -74 -118 -74q-43 0 -71 25.5t-28 65.5q0 82 99 130q34 16 118 32v25q0 88 -9 116q-16 51 -72 51q-35 0 -58.5 -19t-23.5 -48q0 -8 12.5 -8t22.5 -12t10 -27q0 -44 -44 -44q-23 0 -38 15.5t-15 39.5q0 47 37 81
q41 37 114 37q110 0 135 -60q9 -23 9 -91v-187q0 -46 1 -54q5 -36 29 -36q28 0 46 20q10 11 15 11t5 -6zM253 151v73q-75 -17 -107.5 -44.5t-32.5 -73.5q0 -32 18.5 -52.5t46.5 -20.5q43 0 69 48q6 11 6 70z" />
    <glyph glyph-name="b" unicode="b" horiz-adv-x="481" 
d="M450 238q0 -104 -63 -177t-152 -73q-31 0 -65 13t-46 13q-11 0 -25 -9.5t-21 -9.5q-8 0 -8 33v520q0 101 -13 109q-5 3 -39 3q-24 0 -24 8q0 7 11 7h14q55 0 106 23q15 7 21 7h4v-314q38 57 114 57q84 0 135 -57.5t51 -152.5zM359 233q0 94 -29.5 145t-82.5 51
q-28 0 -53 -17.5t-34 -43.5t-9 -158q0 -138 7 -164q11 -42 73 -42q59 0 87 45q41 67 41 184z" />
    <glyph glyph-name="c" unicode="c" horiz-adv-x="409" 
d="M395 345q0 -46 -45 -46q-44 0 -44 42q0 11 10 33q3 7 3 14q0 20 -20.5 33t-51.5 13q-60 0 -93 -52t-33 -146q0 -106 34 -163.5t96 -57.5q42 0 75 26q15 12 39 46q5 5 9 5q10 0 10 -8q0 -13 -35 -49q-45 -47 -115 -47q-88 0 -145.5 63t-57.5 159q0 103 61 170.5t153 67.5
q59 0 104.5 -31t45.5 -72z" />
    <glyph glyph-name="d" unicode="d" horiz-adv-x="476" 
d="M478 20q0 -7 -14 -7h-5q-8 0 -17 1h-8q-49 0 -83 -20q-14 -8 -17 -8q-9 0 -9 12l1 31q-43 -41 -102 -41q-84 0 -138.5 64.5t-54.5 164.5q0 103 54.5 167t142.5 64q68 0 102 -49v156q0 76 -7 94q-6 15 -18 14q-29 -3 -35 -3q-13 0 -13 9t11 9l36 -1q30 -1 92 28q4 2 7 2
q10 0 10 -24v-21q-1 -16 -1 -28v-345q0 -237 5 -254q2 -7 47 -7q14 0 14 -8zM330 271q0 96 -21 123q-27 34 -69 34q-54 0 -86 -56t-32 -150q0 -90 28 -154q12 -27 35.5 -44.5t48.5 -17.5q31 0 56 18.5t32.5 44.5t7.5 202z" />
    <glyph glyph-name="e" unicode="e" horiz-adv-x="430" 
d="M404 109q0 -10 -15.5 -35.5t-31.5 -41.5q-43 -44 -115 -44q-90 0 -150.5 65t-60.5 161q0 100 57.5 167t143.5 67q71 0 119 -41.5t51 -106.5q-32 -5 -85 -4l-70 1q-7 0 -120 -3q-5 -33 -5 -63q0 -101 38.5 -155.5t108.5 -54.5q40 0 64 18t52 69q4 8 11 8q8 0 8 -7z
M317 313q-4 120 -86 120q-81 0 -101 -120h187z" />
    <glyph glyph-name="f" unicode="f" horiz-adv-x="264" 
d="M361 629q0 -21 -12.5 -34.5t-32.5 -13.5q-19 0 -32 12t-13 30q0 15 13 35q3 5 3 9q0 23 -33 23q-56 0 -74 -72q-9 -38 -9 -133v-49h66q20 0 20 -9t-26 -9h-60v-391q0 -14 28 -14q43 1 47 -4q1 -1 1 -4q0 -7 -12 -7q-6 0 -10 1l-82 1l-109 -2q-18 0 -18 7q0 8 14 8
q50 0 55 6q2 2 2 6l1 13v380q-37 0 -43 1t-6 8q0 9 18 9h32q4 127 34 183q46 86 138 86q44 0 72 -21t28 -55z" />
    <glyph glyph-name="g" unicode="g" horiz-adv-x="467" 
d="M492 389q0 -46 -41 -46q-14 0 -25.5 9.5t-11.5 21.5q0 4 3 12.5t3 13.5q0 13 -14 13q-12 0 -23 -12.5t-11 -25.5q0 -3 5 -34t5 -47q0 -68 -47 -114t-117 -46q-18 0 -66 15q-13 4 -17 4q-21 0 -38 -17t-17 -37q0 -52 63 -52q24 0 77 9q41 7 75 7q61 0 95.5 -32t34.5 -89
q0 -86 -73.5 -143t-185.5 -57q-83 0 -130.5 33.5t-47.5 92.5q0 57 44 86q22 14 70 25q-71 28 -71 86q0 72 92 100q-60 47 -60 124q0 72 46 115.5t121 43.5q41 0 66.5 -11t59.5 -44q32 47 79 47q57 0 57 -51zM306 290q0 145 -80 145q-78 0 -78 -135q0 -152 83 -152
q75 0 75 142zM383 -93q0 83 -98 83q-28 0 -82.5 -9t-81.5 -9q-51 -27 -51 -95q0 -51 36.5 -82t96.5 -31q76 0 128 41.5t52 101.5z" />
    <glyph glyph-name="h" unicode="h" horiz-adv-x="477" 
d="M474 6q0 -8 -17 -8q-8 0 -15 1q-35 -1 -156 -1h-11q-13 0 -13 8q0 7 38 7q23 0 26.5 5.5t3.5 37.5v203q0 91 -8 113q-17 46 -75 46q-48 0 -78 -43q-10 -14 -10 -62v-255q0 -27 1 -31q1 -10 8 -11.5t43 -2.5q12 0 12 -8q0 -7 -10 -7l-10 1l-79 1q-83 1 -92 -2h-10
q-11 0 -11 7q0 8 11 8h15l15 1q23 -1 24 14v449q0 160 -5 173q-6 10 -49 11q-24 0 -24 7q0 6 5 7t34 2q51 1 98 24q4 2 14 5q7 -12 7 -77v-245q44 64 120 64q80 0 114 -44q17 -22 21 -62q2 -14 2 -67v-252q1 -10 52 -10q9 -2 9 -7z" />
    <glyph glyph-name="i" unicode="i" horiz-adv-x="251" 
d="M167 629q0 -45 -45 -45q-19 0 -32 12.5t-13 30.5q0 47 45 47t45 -45zM242 6q0 -9 -17 -9q1 0 -24 2q-30 2 -50 2l-104 -2q-5 -1 -12 -1q-11 0 -11 7q0 10 20 10q38 1 41.5 5.5t3.5 41.5l-1 303q-1 25 -2.5 29.5t-12.5 4.5l-29 -1q-4 -1 -10 -1q-11 0 -11 8q0 7 17 8
q67 3 115 32l10 6q8 -15 8 -55q0 2 0 -10q-1 -12 -1 -39v-273q0 -40 1.5 -47t10.5 -9q15 -4 44 -4q14 0 14 -8z" />
    <glyph glyph-name="j" unicode="j" horiz-adv-x="237" 
d="M169 628q0 -44 -44 -44q-20 0 -33 12.5t-13 32.5q0 19 12.5 32t31.5 13q46 0 46 -46zM174 -26q0 -107 -37 -169.5t-101 -62.5q-31 0 -51.5 16t-20.5 40q0 47 51 47q42 0 42 -35q0 -9 -6 -32q-1 -2 -1 -8q0 -9 6 -9q19 0 27.5 30.5t8.5 153.5l-1 441q-1 13 -15 13h-11
q-4 -1 -46 -1q-11 0 -11 8q0 7 26 7q71 -1 104 24q18 11 23 11q8 0 9 -11.5t2 -75.5l1 -119q0 -16 1 -43v-31v-194z" />
    <glyph glyph-name="k" unicode="k" horiz-adv-x="469" 
d="M509 7q0 -7 -37 -7q-29 0 -54 1q-51 2 -70 2q-13 0 -39.5 -2t-39.5 -2q-9 0 -9 7q0 8 19 8q48 0 48 16q0 14 -168 202l1 -204q1 -15 28 -14l27 1q13 0 13 -8q0 -9 -22 -9q2 0 -5 1h-24q-24 1 -65 1h-78q-24 0 -24 8q0 5 4.5 6t34.5 2q24 1 25 11q2 7 2 52v489q0 79 -1 82
q-2 7 -29 7h-10q-7 -1 -16 -1q-11 0 -11 8t23 8q48 1 100 29q12 7 16 7q11 0 11 -83v-369q162 145 162 160q0 6 -39 6h-6q-6 -1 -15 -1h-10q-18 0 -18 8q0 9 31 9h41l37 -1h62q36 0 42 -1t6 -7q0 -7 -47 -8q-34 -1 -41 -5q-12 -7 -23 -18l-125 -121q139 -152 197 -223
q24 -29 38 -35q11 -5 49 -4q9 0 9 -8z" />
    <glyph glyph-name="l" unicode="l" horiz-adv-x="235" 
d="M226 7q0 -9 -13 -9h-12q-2 0 -53 2l-31 1q-8 0 -80 -3q-6 -1 -12 -1q-15 -1 -15 9q0 7 11 7h26q28 0 28 12q1 6 1 78v509q0 33 -2 36q-3 8 -16 8h-8l-28 -1q-14 0 -14 9q0 8 25 9q48 3 89 22l21 10l8 3q8 -29 7 -88l-1 -71l1 -490q0 -30 1 -35.5t7 -7.5q1 -1 37 -2
q23 0 23 -7z" />
    <glyph glyph-name="m" unicode="m" horiz-adv-x="703" 
d="M703 6q0 -8 -17 -8q-2 0 -21.5 1t-52.5 1q-3 0 -106 -2q-13 0 -13 7q0 8 11 8h8l25 1q15 1 17.5 7t2.5 42v248q0 58 -15.5 82.5t-52.5 24.5q-26 0 -48.5 -15.5t-31.5 -39.5q-4 -15 -4 -111v-189q0 -33 1 -38q3 -12 18 -12h29q13 0 13 -8q0 -7 -15 -7h-7q-10 2 -68 2
q-20 0 -53.5 -1t-40.5 -1h-11q-12 0 -12 8q0 5 6 6t40 1q16 1 17 10l1 14v279q0 58 -14.5 80t-51.5 22t-61.5 -23t-24.5 -58v-284q0 -30 4.5 -35.5t29.5 -5.5h8q6 1 11 1q11 0 11 -8q0 -7 -13 -7h-10q-24 3 -75 2l-98 -2q-14 0 -14 8q0 7 13 7q38 0 44 3.5t7 12.5v260
q0 75 -3 88t-29 13h-14q-9 -1 -19 -1q-13 0 -13 7q0 6 4.5 7t32.5 3q23 1 57.5 12t39.5 19q11 11 16 11t6 -8t2 -56q40 64 123 64q89 0 108 -67q39 67 125 67q74 0 100 -53q14 -28 14 -93v-247q0 -34 3.5 -37.5t31.5 -5.5l18 1q11 1 11 -7z" />
    <glyph glyph-name="n" unicode="n" horiz-adv-x="489" 
d="M485 6q0 -8 -15 -8h-12q-18 2 -49 2q-98 0 -116 -2h-7q-13 0 -13 7q0 5 5.5 6t38.5 2q19 1 22 5.5t3 32.5v192q0 109 -8 130q-17 45 -68 45q-50 0 -84 -44q-10 -13 -10 -36l1 -312q0 -12 21 -13l30 -1q10 0 10 -7t-12 -7h-16q-22 2 -70 2q-11 0 -47.5 -1t-42.5 -1h-6
q-15 0 -15 7t18 9h25q15 0 18 7l3 15v218q0 114 -2 126t-25 12q-7 0 -24 -2h-5q-20 0 -20 7q0 9 21 9q30 1 65 11t49 23q9 8 14 8q7 0 7 -19v-48q52 67 134 67q72 0 104 -53q18 -30 18 -114v-228q0 -32 3 -35q6 -6 29 -6q3 0 11 1h7q10 0 10 -7z" />
    <glyph glyph-name="o" unicode="o" horiz-adv-x="480" 
d="M450 216q0 -97 -59 -162.5t-147 -65.5q-91 0 -152 65.5t-61 162.5q0 100 59.5 166t148.5 66q90 0 150.5 -66.5t60.5 -165.5zM359 217q0 110 -34 171q-25 45 -84 45q-56 0 -87.5 -57.5t-31.5 -159.5q0 -101 33.5 -157.5t93.5 -56.5q46 0 68 35q42 66 42 180z" />
    <glyph glyph-name="p" unicode="p" horiz-adv-x="489" 
d="M458 222q0 -100 -56.5 -167t-140.5 -67q-66 0 -102 48v-233q0 -22 1.5 -26t9.5 -7q15 -3 58 -3q12 0 12 -9q0 -7 -13 -7h-19h-23q-15 1 -26 1q-6 0 -33 -1h-42h-53q-29 0 -29 7q0 9 12 9h30q29 0 31 13q1 6 1 92v498q0 28 -27 26q-40 2 -42 2q-9 0 -9 7q0 9 22 9
q55 -1 100 26q13 8 20 8q8 0 10.5 -7.5t3.5 -45.5q37 53 106 53q87 0 142.5 -63.5t55.5 -162.5zM369 221q0 78 -24 133q-32 76 -99 76q-35 0 -60 -24.5t-27 -59.5q-2 -44 1 -185q1 -71 3 -85.5t13 -29.5q29 -41 75 -41q52 0 78 44q40 67 40 172z" />
    <glyph glyph-name="q" unicode="q" horiz-adv-x="463" 
d="M476 -242q0 -7 -13 -7q-6 0 -10 1l-120 2q-12 0 -31 -1t-26 -1h-9q-10 0 -10 7q0 8 18 8q44 1 49 8q4 4 4 69v191q-43 -47 -107 -47q-80 0 -135.5 65.5t-55.5 161.5q0 100 62 166.5t156 66.5q32 0 69 -12q28 -9 40 -9q24 0 33 10t13 10q8 0 8 -17v-645q0 -16 24 -17
q41 -2 41 -10zM329 166q0 163 -1.5 192.5t-11.5 43.5q-22 30 -71 30q-124 0 -124 -220q0 -97 30 -150.5t84 -53.5q28 0 52.5 16t34.5 40q7 17 7 102z" />
    <glyph glyph-name="r" unicode="r" horiz-adv-x="338" 
d="M337 380q0 -23 -14 -38t-36 -15q-18 0 -30 10.5t-12 26.5q0 14 9 24t9 14q0 15 -22 15q-28 0 -48 -35q-23 -41 -23 -152v-198q0 -12 8.5 -15t51.5 -4q11 -2 11 -8q0 -7 -13 -7q-23 0 -43 1t-76 1q-29 0 -42 -1t-33 -1q-16 0 -16 7t13 7h14q34 0 40 8q2 4 2 37v275
q0 55 -16.5 63.5t-52.5 9.5q-12 0 -12 7t10 7h7q15 0 30 -1.5t13 -1.5q37 0 82 21l13 6l8 3q4 -24 4 -48v-20q32 70 90 70q32 0 53 -19.5t21 -48.5z" />
    <glyph glyph-name="s" unicode="s" horiz-adv-x="362" 
d="M336 127q0 -58 -42.5 -98.5t-101.5 -40.5q-34 0 -83 24q-13 7 -23 7q-14 0 -21 -19q-4 -12 -11 -12t-7 8q0 5 1 12q3 20 3 59q0 3 -1 24t-1 28v11q0 11 7 11q8 0 9 -11q6 -46 26 -72q40 -52 107 -52q36 0 58 21t22 56q0 39 -25 62q-14 13 -25.5 18.5t-67.5 26.5
q-111 42 -111 126q0 56 38 94t94 38q20 0 60 -12q10 -3 18 -3q21 0 26 20q3 10 9 10q7 0 7 -8q0 -1 -1 -6l-1 -42q-1 -24 5 -77v-2q0 -8 -8 -8q-6 0 -15 30q-11 36 -38.5 58t-63.5 22q-34 0 -56 -21t-22 -53q0 -50 67 -76q104 -41 132 -68q36 -35 36 -85z" />
    <glyph glyph-name="t" unicode="t" horiz-adv-x="284" 
d="M303 59q0 -9 -25 -32q-43 -39 -102 -39q-55 0 -83 28q-16 16 -16 94v298q-1 10 -11 11h-38q-22 0 -22 7t11 8q78 7 122 76q6 9 15 9q7 0 7 -7v-4q-1 -5 -1 -17q0 -42 4 -54q9 -2 30 -2q55 0 73 5q4 1 7 1q8 0 8 -9q0 -15 -81 -15q-14 0 -41 1v-185q0 -140 7 -175.5
t46 -35.5q33 0 74 37q4 5 9 5q7 0 7 -5z" />
    <glyph glyph-name="u" unicode="u" horiz-adv-x="490" 
d="M500 34q0 -7 -22 -8q-78 -5 -137 -34q-4 -2 -7 -2q-6 0 -6 8l1 56q-46 -66 -129 -66q-74 0 -106 43q-13 18 -15.5 33t-2.5 81v229q0 35 -4 41t-27 7l-13 -1q-27 -2 -27 8q0 7 17 7q18 0 52 -2q17 -1 20 -1q35 0 65 3v-279q0 -77 10 -102q16 -39 65 -39q53 0 78 44
q18 32 18 102v155q0 34 -1 51l-2 33q-1 15 -6.5 17.5t-22.5 2.5q-42 -1 -42 9q0 6 21 6h9q8 -1 53 -1q60 0 74 1v-279q0 -72 3 -91t15.5 -22t56.5 -3q12 0 12 -7z" />
    <glyph glyph-name="v" unicode="v" horiz-adv-x="384" 
d="M415 429q0 -8 -19 -8q-7 0 -18 1h-6q-18 0 -28 -22l-12 -38l-84 -258q-7 -20 -20 -61q-16 -55 -26 -55q-7 0 -14 19q-5 12 -10 27q-81 219 -82 218q-52 148 -63 161q-9 9 -28 8l-23 -1q-10 0 -10 8t14 8l70 -2q16 0 63 1q51 1 53 1h5q10 0 10 -7q0 -8 -31 -8t-31 -8
q0 -11 9 -33q16 -40 62 -172q20 -59 33 -90q28 89 50 153q44 130 44 142q0 9 -15 9q-8 0 -13 -1h-9q-13 0 -13 8q0 7 12 7l62 -1l38 1q30 1 30 -7z" />
    <glyph glyph-name="w" unicode="w" horiz-adv-x="599" 
d="M631 429q0 -8 -15 -8q-11 0 -18 1h-8q-21 0 -40 -59q-11 -38 -21 -76l-31 -100q-17 -52 -50 -166q-9 -34 -17 -34q-7 0 -17.5 25t-53.5 143q-11 31 -33 90q-15 39 -23 65q-39 -110 -101 -311q-4 -12 -12 -12t-14 15q-2 7 -12 34l-24 64q-10 26 -39 117t-34 108
q-28 80 -41 92q-9 4 -32.5 4t-23.5 9q0 7 11 7h8h35q33 -1 72 -1q16 0 33 1h21h12q14 0 14 -8q0 -9 -10 -9l-25 1q-24 1 -24 -10q0 -9 19 -63q33 -94 78 -236q43 140 78 241l16 48q11 38 21 38t21 -35q18 -59 78 -226q8 -22 23 -66l90 302q0 8 -12 8q-4 0 -29 -1
q-11 0 -11 8t14 8h10h105q12 0 12 -8z" />
    <glyph glyph-name="x" unicode="x" horiz-adv-x="421" 
d="M446 7q0 -8 -18 -8h-11q-6 1 -15 1l-99 1q-37 0 -60 -1q-17 -1 -29 -1q-18 0 -18 8q0 6 6 7t43 1q28 0 28 9q0 7 -10 24q-24 43 -74 129l-6 10q-103 -147 -103 -163q0 -9 56 -10q10 0 10 -7q0 -9 -17 -9q-6 0 -22 1t-41 1h-9q-14 0 -26 -1l-20 1q-13 -1 -16 -1
q-11 0 -11 8t22 9q34 2 53 24l83 125q7 10 28 41q-17 29 -86 161q-20 39 -30.5 46t-50.5 8q-15 0 -15 7q0 8 14 8l113 -2q17 0 46 1q33 1 47 1q26 0 26 -8t-35 -9q-44 -1 -44 -11q0 -7 19 -41q32 -60 48 -91l4 -8q30 41 60.5 90.5t30.5 57.5q0 6 -24 5l-21 -1q-7 0 -7 8
t13 8q-6 0 34 -2q10 -1 20 -1q62 3 54 3h11q7 1 10 1q12 0 12 -6q0 -5 -5.5 -7.5t-27.5 -2.5q-29 0 -38 -8t-19 -25l-19 -32q-13 -22 -38 -59l-33 -49l17 -29q8 -14 41 -74q16 -28 55 -95q13 -22 25 -28.5t40.5 -6.5t28.5 -8z" />
    <glyph glyph-name="y" unicode="y" horiz-adv-x="401" 
d="M424 429q0 -7 -24 -8t-30.5 -4t-11.5 -17l-7 -18l-8 -25q-14 -46 -42 -137q-79 -254 -131 -394q-32 -85 -88 -85q-24 0 -39.5 14t-15.5 36q0 19 12.5 31t32.5 12q27 0 39 -22q9 -17 15 -17q9 0 28 49q28 73 44 131q-74 194 -126 339q-36 99 -40 100q-6 5 -32.5 5
t-26.5 10q0 8 13 8q11 0 34 -1.5t35 -1.5h18q21 1 58 2l51 1q11 0 11 -8q0 -7 -37 -8q-31 -1 -31 -10q0 -8 20 -62q8 -23 17 -48l17 -50q7 -22 37 -100q10 -24 22 -58q96 301 96 316q0 9 -7.5 11t-42.5 2q-10 0 -10 8q0 7 12 7q5 0 8 -1q34 -2 56 -2h28q18 0 23.5 1t13.5 1
q9 0 9 -7z" />
    <glyph glyph-name="z" unicode="z" horiz-adv-x="395" 
d="M375 143q0 -5 -4 -22q-19 -81 -23 -122l-141 1q-62 0 -100 -1q-41 -2 -56 -2h-3q-27 0 -27 8q0 1 3 6q22 39 66 116l174 293q-22 3 -63 3q-64 0 -90 -23.5t-41 -93.5q-3 -12 -13 -12q-8 0 -8 8q0 1 7 43q12 72 20 96q70 -3 265 -3h13q1 -2 1 -5q0 -11 -52 -100
q-118 -200 -190 -317q27 -1 65 -1q119 0 146 44q21 34 32 84q3 9 12 9q7 0 7 -9z" />
    <glyph glyph-name="braceleft" unicode="{" horiz-adv-x="305" 
d="M286 686q0 -9 -32 -9q-38 0 -54 -22.5t-16 -73.5q0 -20 2 -60t2 -60q0 -103 -62 -154q-28 -23 -61 -29q-5 -1 -5 -4q0 -4 6 -4q24 -1 53 -24q69 -53 69 -145q0 -22 -2 -65t-2 -65q0 -102 58 -100l24 1q18 1 18 -9t-28 -10q-37 0 -63 9q-42 15 -67 54t-25 90q0 22 2.5 67
t2.5 67q0 69 -22.5 93.5t-51.5 26.5q-22 3 -22 14q0 10 22 13q43 7 60 38q15 27 15 91q0 31 -3 68.5t-3 58.5q0 50 27 91t68 54q23 7 69 7q21 0 21 -9z" />
    <glyph glyph-name="bar" unicode="|" horiz-adv-x="520" 
d="M288 -173h-57v866h57v-866z" />
    <glyph glyph-name="braceright" unicode="}" horiz-adv-x="305" 
d="M294 274q0 -10 -22 -13q-41 -6 -59 -38q-15 -27 -15 -91q0 -21 2.5 -63t2.5 -63q0 -51 -27 -92t-68 -54q-22 -7 -69 -7q-22 0 -22 9t33 9q39 0 54.5 22.5t15.5 75.5q0 15 -2 62t-2 55q0 105 61 155q28 23 62 29q5 2 5 4q0 4 -6 4q-24 1 -53 24q-69 54 -69 146q0 22 2 65
t2 65q0 102 -59 99l-23 -1q-18 -1 -18 9t26 10q38 0 65 -9q43 -14 67.5 -53t24.5 -92q0 -22 -2.5 -67t-2.5 -67q0 -68 22.5 -92.5t50.5 -26.5q23 -2 23 -14z" />
    <glyph glyph-name="asciitilde" unicode="~" horiz-adv-x="681" 
d="M558 753q-25 -46 -64 -73t-77 -27q-20 0 -96 25q-58 19 -90 19q-27 0 -45 -11.5t-49 -48.5l-15 10q62 101 143 101q29 0 94 -23q54 -19 81 -19q57 0 103 56z" />
    <glyph glyph-name="Adieresis" unicode="&#xc4;" horiz-adv-x="602" 
d="M440 811q0 -19 -13.5 -32t-33.5 -13q-21 0 -35 13.5t-14 33.5t14.5 34.5t35.5 14.5q20 0 33 -14.5t13 -36.5zM268 813q0 -19 -14.5 -33t-34.5 -14t-34 14t-14 34q0 21 14 35t34 14t34.5 -15t14.5 -35zM647 7q0 -9 -15 -9q-10 0 -18 1l-127 2l-127 -2q-7 -1 -15 -1
q-20 0 -20 10q0 11 27 11q88 1 88 18q0 1 -2 8l-8 27l-5 14q-9 31 -44 137h-214q-60 -160 -60 -184q0 -14 12 -17q3 -1 50 -4q29 -1 29 -10q0 -10 -26 -10q-46 0 -107 4q-15 1 -31 1t-31 -2q-8 -1 -13 -1q-14 0 -14 9t31.5 10t45.5 9.5t22 32.5q129 368 210 591q2 12 8 27
l5 18q3 11 8 11q3 0 5 -6q13 -39 59 -163q36 -97 179 -487q8 -22 20.5 -28t51.5 -7q26 -1 26 -10zM375 246q-16 45 -53 149l-48 137q-42 -110 -101 -286h202z" />
    <glyph glyph-name="Aring" unicode="&#xc5;" horiz-adv-x="602" 
d="M395 850q0 -37 -25.5 -61.5t-64.5 -24.5q-35 0 -60.5 25t-25.5 60q0 37 25.5 62t62.5 25t62.5 -25t25.5 -61zM647 7q0 -9 -15 -9q-10 0 -18 1l-127 2l-127 -2q-7 -1 -15 -1q-20 0 -20 10q0 11 27 11q88 1 88 18q0 1 -2 8l-8 27l-5 14q-9 31 -44 137h-214
q-60 -160 -60 -184q0 -14 12 -17q3 -1 50 -4q29 -1 29 -10q0 -10 -26 -10q-46 0 -107 4q-15 1 -31 1t-31 -2q-8 -1 -13 -1q-14 0 -14 9t31.5 10t45.5 9.5t22 32.5q129 368 210 591q2 12 8 27l5 18q3 11 8 11q3 0 5 -6q13 -39 59 -163q36 -97 179 -487q8 -22 20.5 -28
t51.5 -7q26 -1 26 -10zM361 851q0 25 -15.5 41t-39.5 16q-22 0 -37 -17t-15 -42q0 -24 15.5 -40.5t38.5 -16.5t38 16.5t15 42.5zM375 246q-16 45 -53 149l-48 137q-42 -110 -101 -286h202z" />
    <glyph glyph-name="Ccedilla" unicode="&#xc7;" horiz-adv-x="653" 
d="M608 224q0 -9 -2 -28q-5 -47 -5 -111q0 -24 5 -70v-9q0 -13 -8 -13t-14 15q-14 34 -28 43q-73 -63 -175 -63q-16 0 -28 1v-20q40 0 66.5 -21.5t26.5 -53.5q0 -34 -27.5 -58t-67.5 -24q-22 0 -48 12.5t-26 23.5q0 6 7 6q4 0 15 -8q13 -11 33 -11t35.5 21.5t15.5 50.5
q0 49 -37 49q-9 0 -14 -1v37q-129 19 -209 117.5t-80 239.5q0 157 88.5 256.5t228.5 99.5q50 0 81 -8.5t75 -34.5q22 -13 33 -13q9 0 17 16q13 28 21 28t8 -8q0 -4 -2 -13q-15 -66 -11 -163l1 -23q1 -19 -11 -19q-10 0 -13 19q-16 95 -53 141q-47 58 -138 58q-81 0 -128 -54
q-85 -97 -85 -284q0 -165 71 -259q61 -80 161 -80q52 0 95 25.5t66 69.5q26 49 37 111q4 24 13 24q10 0 10 -14z" />
    <glyph glyph-name="Eacute" unicode="&#xc9;" horiz-adv-x="582" 
d="M449 916l-91 -94q-61 -63 -70 -63q-6 0 -6 5q0 2 2 6q11 27 33 78l32 69q15 1 33 1q31 0 49 -1zM562 162q0 -4 -2 -49t-2 -86v-33q-98 5 -388 5q-35 0 -69 -1h-46h-10q-19 0 -19 9q0 6 6 7q3 0 38 3q26 2 31.5 11t5.5 47v562q0 29 -8.5 34.5t-54.5 5.5q-16 0 -16 9t22 9
l171 -1q9 0 113 1h140q30 0 55 4q2 -43 9 -119l4 -43q1 -5 1 -13q0 -10 -9 -10q-11 0 -16 25q-19 90 -62 114q-32 18 -168 18h-82v-293h24q112 0 136.5 17t33.5 99q2 21 11 21q11 0 11 -18t-2 -53t-2 -53q0 -107 4 -147q1 -10 1 -17q0 -13 -11 -13q-7 0 -9.5 8.5t-8.5 55.5
q-8 59 -49 73q-18 6 -94 6h-45v-336q220 0 258 9q66 15 75 128q2 25 13 25q10 0 10 -21z" />
    <glyph glyph-name="Ntilde" unicode="&#xd1;" horiz-adv-x="656" 
d="M470 857q0 -24 -20.5 -57t-59.5 -33q-24 0 -91 35q-61 32 -73 32q-20 0 -20 -21q0 -11 15 -27q5 -5 5 -8q0 -8 -10 -8t-20 13t-10 26q0 27 21.5 46.5t51.5 19.5q34 0 93 -31t73 -31q12 0 22 35q5 17 14 17t9 -8zM642 685q0 -10 -25 -9l-22 1h-18q-16 0 -19 -5.5t-3 -33.5
v-576q0 -53 -1 -62t-6 -9q-6 0 -14 11l-128 187q-111 163 -270 407l1 -558q1 -13 15 -16.5t67 -4.5q13 0 13 -8q0 -10 -26 -10q-9 0 -57 3q-16 1 -31 1q1 0 -17.5 -2t-56.5 -2h-10q-23 0 -23 9t20 9q59 1 68.5 7.5t9.5 42.5v493q0 83 -34 104q-16 10 -57 10q-26 0 -26 10
q0 9 15 9q20 0 51 -1t33 -1q3 0 28 1q33 0 64 1l345 -513v445q0 31 -1 37.5t-8 10t-48 3.5q-36 0 -36 9q0 10 24 10h35h28q16 -1 19 -1q1 0 18 1h30h31q22 0 22 -10z" />
    <glyph glyph-name="Odieresis" unicode="&#xd6;" horiz-adv-x="720" 
d="M493 811q0 -19 -13.5 -32t-33.5 -13q-21 0 -35 13.5t-14 33.5t14.5 34.5t35.5 14.5q20 0 33 -14.5t13 -36.5zM321 813q0 -19 -14.5 -33t-34.5 -14t-34 14t-14 34q0 21 14 35t34 14t34.5 -15t14.5 -35zM678 343q0 -149 -89.5 -252t-219.5 -103q-138 0 -232 104.5
t-94 257.5q0 156 90.5 255.5t231.5 99.5q133 0 223 -104t90 -258zM566 338q0 183 -75 285q-47 64 -131 64q-80 0 -124 -49q-81 -90 -81 -293q0 -161 56.5 -250t158.5 -89q95 0 143 84q53 93 53 248z" />
    <glyph glyph-name="Udieresis" unicode="&#xdc;" horiz-adv-x="666" 
d="M485 811q0 -19 -13.5 -32t-33.5 -13q-21 0 -35 13.5t-14 33.5t14.5 34.5t35.5 14.5q20 0 33 -14.5t13 -36.5zM313 813q0 -19 -14.5 -33t-34.5 -14t-34 14t-14 34q0 21 14 35t34 14t34.5 -15t14.5 -35zM657 685q0 -9 -18 -9q-3 0 -20 1q-5 1 -14 1q-25 0 -30 -13
q-2 -7 -2 -23v-375q0 -146 -54.5 -212.5t-175.5 -66.5q-145 0 -204 82q-39 55 -39 181l-1 401q-3 18 -24 22q-6 1 -37 1q-17 2 -17 10q0 9 14 9h18q5 0 23 -1h29l143 1q5 1 12 1q17 0 17 -11q0 -7 -6 -8t-40 -2q-14 0 -19 -2q-10 -4 -11 -14q-1 -4 -1 -57v-358
q0 -132 42 -180t125 -48q152 0 172 173q3 26 3 220v57l1 80l-1 69v22q1 13 1 11q0 22 -21 27q-7 2 -41 2q-20 0 -20 11q0 9 14 9q8 0 13 -1q12 -1 87 -1q11 0 25 1h19h15q23 0 23 -10z" />
    <glyph glyph-name="aacute" unicode="&#xe1;" horiz-adv-x="397" 
d="M328 663l-91 -95q-60 -63 -70 -63q-6 0 -6 5q0 2 2 6q11 27 33 78l32 70h33h14q13 -1 35 -1h18zM429 45q0 -17 -35.5 -35.5t-68.5 -18.5q-69 0 -72 71q-38 -74 -118 -74q-43 0 -71 25.5t-28 65.5q0 82 99 130q34 16 118 32v25q0 88 -9 116q-16 51 -72 51q-35 0 -58.5 -19
t-23.5 -48q0 -8 12.5 -8t22.5 -12t10 -27q0 -44 -44 -44q-23 0 -38 15.5t-15 39.5q0 47 37 81q41 37 114 37q110 0 135 -60q9 -23 9 -91v-187q0 -46 1 -54q5 -36 29 -36q28 0 46 20q10 11 15 11t5 -6zM253 151v73q-75 -17 -107.5 -44.5t-32.5 -73.5q0 -32 18.5 -52.5
t46.5 -20.5q43 0 69 48q6 11 6 70z" />
    <glyph glyph-name="agrave" unicode="&#xe0;" horiz-adv-x="397" 
d="M216 510q0 -5 -6 -5q-10 0 -70 63l-91 95h17l29 1h53l41 -89q0 -1 11 -26l14 -33q2 -4 2 -6zM429 45q0 -17 -35.5 -35.5t-68.5 -18.5q-69 0 -72 71q-38 -74 -118 -74q-43 0 -71 25.5t-28 65.5q0 82 99 130q34 16 118 32v25q0 88 -9 116q-16 51 -72 51q-35 0 -58.5 -19
t-23.5 -48q0 -8 12.5 -8t22.5 -12t10 -27q0 -44 -44 -44q-23 0 -38 15.5t-15 39.5q0 47 37 81q41 37 114 37q110 0 135 -60q9 -23 9 -91v-187q0 -46 1 -54q5 -36 29 -36q28 0 46 20q10 11 15 11t5 -6zM253 151v73q-75 -17 -107.5 -44.5t-32.5 -73.5q0 -32 18.5 -52.5
t46.5 -20.5q43 0 69 48q6 11 6 70z" />
    <glyph glyph-name="acircumflex" unicode="&#xe2;" horiz-adv-x="397" 
d="M311 500h-66q-37 35 -73 111q-21 -43 -48.5 -78t-41.5 -35q-9 0 -9 7q0 4 6 8q46 46 85 130q16 35 25 35q8 0 27 -36q39 -75 95 -142zM429 45q0 -17 -35.5 -35.5t-68.5 -18.5q-69 0 -72 71q-38 -74 -118 -74q-43 0 -71 25.5t-28 65.5q0 82 99 130q34 16 118 32v25
q0 88 -9 116q-16 51 -72 51q-35 0 -58.5 -19t-23.5 -48q0 -8 12.5 -8t22.5 -12t10 -27q0 -44 -44 -44q-23 0 -38 15.5t-15 39.5q0 47 37 81q41 37 114 37q110 0 135 -60q9 -23 9 -91v-187q0 -46 1 -54q5 -36 29 -36q28 0 46 20q10 11 15 11t5 -6zM253 151v73
q-75 -17 -107.5 -44.5t-32.5 -73.5q0 -32 18.5 -52.5t46.5 -20.5q43 0 69 48q6 11 6 70z" />
    <glyph glyph-name="adieresis" unicode="&#xe4;" horiz-adv-x="397" 
d="M326 558q0 -19 -13.5 -32t-33.5 -13q-21 0 -35 13.5t-14 33.5t14.5 34.5t35.5 14.5q20 0 33 -14.5t13 -36.5zM154 559q0 -19 -14.5 -33t-34.5 -14t-34 14t-14 34q0 21 14 35t35 14q19 0 33.5 -15t14.5 -35zM429 45q0 -17 -35.5 -35.5t-68.5 -18.5q-69 0 -72 71
q-38 -74 -118 -74q-43 0 -71 25.5t-28 65.5q0 82 99 130q34 16 118 32v25q0 88 -9 116q-16 51 -72 51q-35 0 -58.5 -19t-23.5 -48q0 -8 12.5 -8t22.5 -12t10 -27q0 -44 -44 -44q-23 0 -38 15.5t-15 39.5q0 47 37 81q41 37 114 37q110 0 135 -60q9 -23 9 -91v-187
q0 -46 1 -54q5 -36 29 -36q28 0 46 20q10 11 15 11t5 -6zM253 151v73q-75 -17 -107.5 -44.5t-32.5 -73.5q0 -32 18.5 -52.5t46.5 -20.5q43 0 69 48q6 11 6 70z" />
    <glyph glyph-name="atilde" unicode="&#xe3;" horiz-adv-x="397" 
d="M341 603q0 -25 -20.5 -57t-59.5 -32q-27 0 -89.5 33t-74.5 33q-7 0 -13.5 -7t-6.5 -14q0 -11 15 -27q5 -3 5 -8q0 -7 -10 -7t-20 12.5t-10 26.5q0 26 21.5 45.5t51.5 19.5q32 0 92 -30.5t74 -30.5q12 0 22 34q5 17 14 17t9 -8zM429 45q0 -17 -35.5 -35.5t-68.5 -18.5
q-69 0 -72 71q-38 -74 -118 -74q-43 0 -71 25.5t-28 65.5q0 82 99 130q34 16 118 32v25q0 88 -9 116q-16 51 -72 51q-35 0 -58.5 -19t-23.5 -48q0 -8 12.5 -8t22.5 -12t10 -27q0 -44 -44 -44q-23 0 -38 15.5t-15 39.5q0 47 37 81q41 37 114 37q110 0 135 -60q9 -23 9 -91
v-187q0 -46 1 -54q5 -36 29 -36q28 0 46 20q10 11 15 11t5 -6zM253 151v73q-75 -17 -107.5 -44.5t-32.5 -73.5q0 -32 18.5 -52.5t46.5 -20.5q43 0 69 48q6 11 6 70z" />
    <glyph glyph-name="aring" unicode="&#xe5;" horiz-adv-x="397" 
d="M287 596q0 -37 -25.5 -61.5t-64.5 -24.5q-35 0 -60.5 25t-25.5 60q0 37 25.5 62t62.5 25t62.5 -25t25.5 -61zM429 45q0 -17 -35.5 -35.5t-68.5 -18.5q-69 0 -72 71q-38 -74 -118 -74q-43 0 -71 25.5t-28 65.5q0 82 99 130q34 16 118 32v25q0 88 -9 116q-16 51 -72 51
q-35 0 -58.5 -19t-23.5 -48q0 -8 12.5 -8t22.5 -12t10 -27q0 -44 -44 -44q-23 0 -38 15.5t-15 39.5q0 47 37 81q41 37 114 37q110 0 135 -60q9 -23 9 -91v-187q0 -46 1 -54q5 -36 29 -36q28 0 46 20q10 11 15 11t5 -6zM253 597q0 25 -15.5 41t-39.5 16q-22 0 -37 -17
t-15 -42q0 -24 15.5 -40.5t38.5 -16.5t38 16.5t15 42.5zM253 151v73q-75 -17 -107.5 -44.5t-32.5 -73.5q0 -32 18.5 -52.5t46.5 -20.5q43 0 69 48q6 11 6 70z" />
    <glyph glyph-name="ccedilla" unicode="&#xe7;" horiz-adv-x="409" 
d="M395 345q0 -46 -45 -46q-44 0 -44 42q0 11 10 33q3 7 3 14q0 20 -20.5 33t-51.5 13q-60 0 -93 -52t-33 -146q0 -106 34 -163.5t96 -57.5q42 0 75 26q15 12 39 46q5 5 9 5q10 0 10 -8q0 -12 -35 -49q-44 -47 -114 -47q-12 0 -22 1v-20q40 0 66.5 -21.5t26.5 -53.5
q0 -34 -27.5 -58t-67.5 -24q-22 0 -48 12.5t-26 23.5q0 6 7 6q4 0 15 -8q15 -11 33 -11q20 0 35.5 21.5t15.5 50.5q0 49 -37 49q-9 0 -14 -1v37q-74 17 -117.5 76.5t-43.5 142.5q0 101 60.5 169t151.5 68q61 0 106.5 -31t45.5 -72z" />
    <glyph glyph-name="eacute" unicode="&#xe9;" horiz-adv-x="430" 
d="M363 663l-91 -95q-60 -63 -70 -63q-6 0 -6 5q0 2 2 6q11 27 33 78l32 70h33h14q13 -1 35 -1h18zM404 109q0 -10 -15.5 -35.5t-31.5 -41.5q-43 -44 -115 -44q-90 0 -150.5 65t-60.5 161q0 100 57.5 167t143.5 67q71 0 119 -41.5t51 -106.5q-32 -5 -85 -4l-70 1
q-7 0 -120 -3q-5 -33 -5 -63q0 -101 38.5 -155.5t108.5 -54.5q40 0 64 18t52 69q4 8 11 8q8 0 8 -7zM317 313q-4 120 -86 120q-81 0 -101 -120h187z" />
    <glyph glyph-name="egrave" unicode="&#xe8;" horiz-adv-x="430" 
d="M269 510q0 -5 -6 -5q-10 0 -70 63l-91 95h17l29 1h53l41 -89q0 -1 11 -26l14 -33q2 -4 2 -6zM404 109q0 -10 -15.5 -35.5t-31.5 -41.5q-43 -44 -115 -44q-90 0 -150.5 65t-60.5 161q0 100 57.5 167t143.5 67q71 0 119 -41.5t51 -106.5q-32 -5 -85 -4l-70 1q-7 0 -120 -3
q-5 -33 -5 -63q0 -101 38.5 -155.5t108.5 -54.5q40 0 64 18t52 69q4 8 11 8q8 0 8 -7zM317 313q-4 120 -86 120q-81 0 -101 -120h187z" />
    <glyph glyph-name="ecircumflex" unicode="&#xea;" horiz-adv-x="430" 
d="M358 500h-66q-37 35 -73 111q-21 -43 -48.5 -78t-41.5 -35q-9 0 -9 7q0 4 6 8q46 46 85 130q16 35 25 35q8 0 27 -36q39 -75 95 -142zM404 109q0 -10 -15.5 -35.5t-31.5 -41.5q-43 -44 -115 -44q-90 0 -150.5 65t-60.5 161q0 100 57.5 167t143.5 67q71 0 119 -41.5
t51 -106.5q-32 -5 -85 -4l-70 1q-7 0 -120 -3q-5 -33 -5 -63q0 -101 38.5 -155.5t108.5 -54.5q40 0 64 18t52 69q4 8 11 8q8 0 8 -7zM317 313q-4 120 -86 120q-81 0 -101 -120h187z" />
    <glyph glyph-name="edieresis" unicode="&#xeb;" horiz-adv-x="430" 
d="M370 558q0 -19 -13.5 -32t-33.5 -13q-21 0 -35 13.5t-14 33.5t14.5 34.5t35.5 14.5q20 0 33 -14.5t13 -36.5zM198 559q0 -19 -14.5 -33t-34.5 -14t-34 14t-14 34q0 21 14 35t35 14q19 0 33.5 -15t14.5 -35zM404 109q0 -10 -15.5 -35.5t-31.5 -41.5q-43 -44 -115 -44
q-90 0 -150.5 65t-60.5 161q0 100 57.5 167t143.5 67q71 0 119 -41.5t51 -106.5q-32 -5 -85 -4l-70 1q-7 0 -120 -3q-5 -33 -5 -63q0 -101 38.5 -155.5t108.5 -54.5q40 0 64 18t52 69q4 8 11 8q8 0 8 -7zM317 313q-4 120 -86 120q-81 0 -101 -120h187z" />
    <glyph glyph-name="iacute" unicode="&#xed;" horiz-adv-x="251" 
d="M256 663l-91 -95q-60 -63 -70 -63q-6 0 -6 5q0 2 2 6q11 27 33 78l32 70h33h14q13 -1 35 -1h18zM242 6q0 -9 -17 -9q1 0 -24 2q-30 2 -50 2l-104 -2q-5 -1 -12 -1q-11 0 -11 7q0 10 20 10q38 1 41.5 5.5t3.5 41.5l-1 303q-1 25 -2.5 29.5t-12.5 4.5l-29 -1q-4 -1 -10 -1
q-11 0 -11 8q0 7 17 8q67 3 115 32l10 6q8 -15 8 -55q0 2 0 -10q-1 -12 -1 -39v-273q0 -40 1.5 -47t10.5 -9q15 -4 44 -4q14 0 14 -8z" />
    <glyph glyph-name="igrave" unicode="&#xec;" horiz-adv-x="251" 
d="M161 510q0 -5 -6 -5q-10 0 -70 63l-91 95h17l29 1h53l41 -89q0 -1 11 -26l14 -33q2 -4 2 -6zM241 6q0 -9 -17 -9q1 0 -24 2q-30 2 -50 2l-104 -2q-5 -1 -12 -1q-11 0 -11 7q0 10 20 10q38 1 41.5 5.5t3.5 41.5l-1 303q-1 25 -2.5 29.5t-12.5 4.5l-29 -1q-4 -1 -10 -1
q-11 0 -11 8q0 7 17 8q67 3 115 32l10 6q8 -15 8 -55q0 2 0 -10q-1 -12 -1 -39v-273q0 -40 1.5 -47t10.5 -9q15 -4 44 -4q14 0 14 -8z" />
    <glyph glyph-name="icircumflex" unicode="&#xee;" horiz-adv-x="251" 
d="M241 500h-66q-37 35 -73 111q-21 -43 -48.5 -78t-41.5 -35q-9 0 -9 7q0 4 6 8q46 46 85 130q16 35 25 35q8 0 27 -36q39 -75 95 -142zM242 6q0 -9 -17 -9q1 0 -24 2q-30 2 -50 2l-104 -2q-5 -1 -12 -1q-11 0 -11 7q0 10 20 10q38 1 41.5 5.5t3.5 41.5l-1 303
q-1 25 -2.5 29.5t-12.5 4.5l-29 -1q-4 -1 -10 -1q-11 0 -11 8q0 7 17 8q67 3 115 32l10 6q8 -15 8 -55q0 2 0 -10q-1 -12 -1 -39v-273q0 -40 1.5 -47t10.5 -9q15 -4 44 -4q14 0 14 -8z" />
    <glyph glyph-name="idieresis" unicode="&#xef;" horiz-adv-x="251" 
d="M241 559q0 -20 -13.5 -33t-33.5 -13q-21 0 -35 13.5t-14 33.5t14.5 34.5t35.5 14.5q19 0 32.5 -14.5t13.5 -35.5zM105 559q0 -19 -14.5 -33t-34.5 -14t-34 14t-14 34q0 21 14 35t35 14q19 0 33.5 -15t14.5 -35zM241 6q0 -9 -17 -9q1 0 -24 2q-30 2 -50 2l-104 -2
q-5 -1 -12 -1q-11 0 -11 7q0 10 20 10q38 1 41.5 5.5t3.5 41.5l-1 303q-1 25 -2.5 29.5t-12.5 4.5l-29 -1q-4 -1 -10 -1q-11 0 -11 8q0 7 17 8q67 3 115 32l10 6q8 -15 8 -55q0 2 0 -10q-1 -12 -1 -39v-273q0 -40 1.5 -47t10.5 -9q15 -4 44 -4q14 0 14 -8z" />
    <glyph glyph-name="ntilde" unicode="&#xf1;" horiz-adv-x="489" 
d="M387 603q0 -25 -20.5 -57t-59.5 -32q-27 0 -89.5 33t-74.5 33q-7 0 -13.5 -7t-6.5 -14q0 -11 15 -27q5 -3 5 -8q0 -7 -10 -7t-20 12.5t-10 26.5q0 26 21.5 45.5t51.5 19.5q32 0 92 -30.5t74 -30.5q12 0 22 34q5 17 14 17t9 -8zM485 6q0 -8 -15 -8h-12q-18 2 -49 2
q-98 0 -116 -2h-7q-13 0 -13 7q0 5 5.5 6t38.5 2q19 1 22 5.5t3 32.5v192q0 109 -8 130q-17 45 -68 45q-50 0 -84 -44q-10 -13 -10 -36l1 -312q0 -12 21 -13l30 -1q10 0 10 -7t-12 -7h-16q-22 2 -70 2q-11 0 -47.5 -1t-42.5 -1h-6q-15 0 -15 7t18 9h25q15 0 18 7l3 15v218
q0 114 -2 126t-25 12q-7 0 -24 -2h-5q-20 0 -20 7q0 9 21 9q30 1 65 11t49 23q9 8 14 8q7 0 7 -19v-48q52 67 134 67q72 0 104 -53q18 -30 18 -114v-228q0 -32 3 -35q6 -6 29 -6q3 0 11 1h7q10 0 10 -7z" />
    <glyph glyph-name="oacute" unicode="&#xf3;" horiz-adv-x="480" 
d="M370 663l-91 -95q-60 -63 -70 -63q-6 0 -6 5q0 2 2 6q11 27 33 78l32 70h33h14q13 -1 35 -1h18zM450 216q0 -97 -59 -162.5t-147 -65.5q-91 0 -152 65.5t-61 162.5q0 100 59.5 166t148.5 66q90 0 150.5 -66.5t60.5 -165.5zM359 217q0 110 -34 171q-25 45 -84 45
q-56 0 -87.5 -57.5t-31.5 -159.5q0 -101 33.5 -157.5t93.5 -56.5q46 0 68 35q42 66 42 180z" />
    <glyph glyph-name="ograve" unicode="&#xf2;" horiz-adv-x="480" 
d="M276 510q0 -5 -6 -5q-10 0 -70 63l-91 95h17l29 1h53l41 -89q0 -1 11 -26l14 -33q2 -4 2 -6zM450 216q0 -97 -59 -162.5t-147 -65.5q-91 0 -152 65.5t-61 162.5q0 100 59.5 166t148.5 66q90 0 150.5 -66.5t60.5 -165.5zM359 217q0 110 -34 171q-25 45 -84 45
q-56 0 -87.5 -57.5t-31.5 -159.5q0 -101 33.5 -157.5t93.5 -56.5q46 0 68 35q42 66 42 180z" />
    <glyph glyph-name="ocircumflex" unicode="&#xf4;" horiz-adv-x="480" 
d="M365 500h-66q-37 35 -73 111q-21 -43 -48.5 -78t-41.5 -35q-9 0 -9 7q0 4 6 8q46 46 85 130q16 35 25 35q8 0 27 -36q39 -75 95 -142zM450 216q0 -97 -59 -162.5t-147 -65.5q-91 0 -152 65.5t-61 162.5q0 100 59.5 166t148.5 66q90 0 150.5 -66.5t60.5 -165.5zM359 217
q0 110 -34 171q-25 45 -84 45q-56 0 -87.5 -57.5t-31.5 -159.5q0 -101 33.5 -157.5t93.5 -56.5q46 0 68 35q42 66 42 180z" />
    <glyph glyph-name="odieresis" unicode="&#xf6;" horiz-adv-x="480" 
d="M373 558q0 -19 -13.5 -32t-33.5 -13q-21 0 -35 13.5t-14 33.5t14.5 34.5t35.5 14.5q20 0 33 -14.5t13 -36.5zM201 559q0 -19 -14.5 -33t-34.5 -14t-34 14t-14 34q0 21 14 35t35 14q19 0 33.5 -15t14.5 -35zM450 216q0 -97 -59 -162.5t-147 -65.5q-91 0 -152 65.5
t-61 162.5q0 100 59.5 166t148.5 66q90 0 150.5 -66.5t60.5 -165.5zM359 217q0 110 -34 171q-25 45 -84 45q-56 0 -87.5 -57.5t-31.5 -159.5q0 -101 33.5 -157.5t93.5 -56.5q46 0 68 35q42 66 42 180z" />
    <glyph glyph-name="otilde" unicode="&#xf5;" horiz-adv-x="480" 
d="M382 603q0 -25 -20.5 -57t-59.5 -32q-27 0 -89.5 33t-74.5 33q-7 0 -13.5 -7t-6.5 -14q0 -11 15 -27q5 -3 5 -8q0 -7 -10 -7t-20 12.5t-10 26.5q0 26 21.5 45.5t51.5 19.5q32 0 92 -30.5t74 -30.5q12 0 22 34q5 17 14 17t9 -8zM450 216q0 -97 -59 -162.5t-147 -65.5
q-91 0 -152 65.5t-61 162.5q0 100 59.5 166t148.5 66q90 0 150.5 -66.5t60.5 -165.5zM359 217q0 110 -34 171q-25 45 -84 45q-56 0 -87.5 -57.5t-31.5 -159.5q0 -101 33.5 -157.5t93.5 -56.5q46 0 68 35q42 66 42 180z" />
    <glyph glyph-name="uacute" unicode="&#xfa;" horiz-adv-x="490" 
d="M375 663l-91 -95q-60 -63 -70 -63q-6 0 -6 5q0 2 2 6q11 27 33 78l32 70h33h14q13 -1 35 -1h18zM500 34q0 -7 -22 -8q-78 -5 -137 -34q-4 -2 -7 -2q-6 0 -6 8l1 56q-46 -66 -129 -66q-74 0 -106 43q-13 18 -15.5 33t-2.5 81v229q0 35 -4 41t-27 7l-13 -1q-27 -2 -27 8
q0 7 17 7q18 0 52 -2q17 -1 20 -1q35 0 65 3v-279q0 -77 10 -102q16 -39 65 -39q53 0 78 44q18 32 18 102v155q0 34 -1 51l-2 33q-1 15 -6.5 17.5t-22.5 2.5q-42 -1 -42 9q0 6 21 6h9q8 -1 53 -1q60 0 74 1v-279q0 -72 3 -91t15.5 -22t56.5 -3q12 0 12 -7z" />
    <glyph glyph-name="ugrave" unicode="&#xf9;" horiz-adv-x="490" 
d="M280 510q0 -5 -6 -5q-10 0 -70 63l-91 95h17l29 1h53l41 -89q0 -1 11 -26l14 -33q2 -4 2 -6zM500 34q0 -7 -22 -8q-78 -5 -137 -34q-4 -2 -7 -2q-6 0 -6 8l1 56q-46 -66 -129 -66q-74 0 -106 43q-13 18 -15.5 33t-2.5 81v229q0 35 -4 41t-27 7l-13 -1q-27 -2 -27 8
q0 7 17 7q18 0 52 -2q17 -1 20 -1q35 0 65 3v-279q0 -77 10 -102q16 -39 65 -39q53 0 78 44q18 32 18 102v155q0 34 -1 51l-2 33q-1 15 -6.5 17.5t-22.5 2.5q-42 -1 -42 9q0 6 21 6h9q8 -1 53 -1q60 0 74 1v-279q0 -72 3 -91t15.5 -22t56.5 -3q12 0 12 -7z" />
    <glyph glyph-name="ucircumflex" unicode="&#xfb;" horiz-adv-x="490" 
d="M369 500h-66q-37 35 -73 111q-21 -43 -48.5 -78t-41.5 -35q-9 0 -9 7q0 4 6 8q46 46 85 130q16 35 25 35q8 0 27 -36q39 -75 95 -142zM500 34q0 -7 -22 -8q-78 -5 -137 -34q-4 -2 -7 -2q-6 0 -6 8l1 56q-46 -66 -129 -66q-74 0 -106 43q-13 18 -15.5 33t-2.5 81v229
q0 35 -4 41t-27 7l-13 -1q-27 -2 -27 8q0 7 17 7q18 0 52 -2q17 -1 20 -1q35 0 65 3v-279q0 -77 10 -102q16 -39 65 -39q53 0 78 44q18 32 18 102v155q0 34 -1 51l-2 33q-1 15 -6.5 17.5t-22.5 2.5q-42 -1 -42 9q0 6 21 6h9q8 -1 53 -1q60 0 74 1v-279q0 -72 3 -91t15.5 -22
t56.5 -3q12 0 12 -7z" />
    <glyph glyph-name="udieresis" unicode="&#xfc;" horiz-adv-x="490" 
d="M378 558q0 -19 -13.5 -32t-33.5 -13q-21 0 -35 13.5t-14 33.5t14.5 34.5t35.5 14.5q20 0 33 -14.5t13 -36.5zM206 559q0 -19 -14.5 -33t-34.5 -14t-34 14t-14 34q0 21 14 35t35 14q19 0 33.5 -15t14.5 -35zM500 34q0 -7 -22 -8q-78 -5 -137 -34q-4 -2 -7 -2q-6 0 -6 8
l1 56q-46 -66 -129 -66q-74 0 -106 43q-13 18 -15.5 33t-2.5 81v229q0 35 -4 41t-27 7l-13 -1q-27 -2 -27 8q0 7 17 7q18 0 52 -2q17 -1 20 -1q35 0 65 3v-279q0 -77 10 -102q16 -39 65 -39q53 0 78 44q18 32 18 102v155q0 34 -1 51l-2 33q-1 15 -6.5 17.5t-22.5 2.5
q-42 -1 -42 9q0 6 21 6h9q8 -1 53 -1q60 0 74 1v-279q0 -72 3 -91t15.5 -22t56.5 -3q12 0 12 -7z" />
    <glyph glyph-name="dagger" unicode="&#x2020;" horiz-adv-x="533" 
d="M480 486q0 -9 -14 -12q-24 -5 -45 -27q-7 -10 -17 -10q-8 0 -29 15q-32 23 -95 25q-1 -68 50 -125q-20 -39 -30 -107q-19 -123 -19 -320v-63h-27q-1 11 -1 31v69q0 280 -49 390q51 57 50 125q-70 -3 -101 -30q-12 -10 -23 -10q-9 0 -17 10q-14 15 -19.5 18.5t-25.5 8.5
q-14 4 -14 12t27 17q14 5 27 20t23 15q7 0 22 -9q39 -31 103 -31q-6 80 -40 117q-5 7 -5 13q0 7 15 21t18.5 20t8.5 27q3 14 14 14q10 0 14 -18q6 -23 22 -37q20 -17 20 -28q0 -5 -14 -23q-28 -37 -30 -106q61 1 92 23q25 17 33 17t19 -13q16 -18 41 -25q16 -5 16 -14z" />
    <glyph glyph-name="degree" unicode="&#xb0;" horiz-adv-x="533" 
d="M390 583q0 -51 -36 -85.5t-90 -34.5q-49 0 -84.5 35.5t-35.5 84.5q0 52 35.5 87t87.5 35t87.5 -35t35.5 -87zM345 585q0 35 -22.5 58.5t-56.5 23.5q-31 0 -53 -24.5t-22 -59.5t22.5 -58.5t55.5 -23.5t54.5 23.5t21.5 60.5z" />
    <glyph glyph-name="cent" unicode="&#xa2;" horiz-adv-x="509" 
d="M491 635q0 -3 -17 -30l-55 -87q25 -17 25 -50q0 -19 -12 -31.5t-29 -12.5q-22 0 -35 19l-163 -251q37 -64 102 -64q31 0 61 18.5t47 47.5q6 11 14 11q9 0 9 -7q0 -14 -29 -45q-48 -52 -114 -52q-70 0 -125 41l-84 -130q-12 -18 -18 -18q-13 0 -13 13q0 4 10 20l83 129
q-69 77 -69 172q0 98 62.5 166t152.5 68q59 0 105 -27l54 81q7 10 11 18q6 12 15 12q12 0 12 -11zM374 505q-18 44 -72 44q-60 0 -93 -51t-33 -145q0 -90 17 -134z" />
    <glyph glyph-name="sterling" unicode="&#xa3;" horiz-adv-x="516" 
d="M496 142q0 -69 -21 -105q-13 -23 -39.5 -38.5t-53.5 -15.5q-40 0 -126 37q-67 29 -113 29q-30 0 -50 -13q-16 -10 -37 -37q-9 -11 -16 -11t-17 12t-10 21q0 7 11 10q123 34 123 168q0 35 -12 74h-93q-19 0 -19 12q0 13 21 13h82q-28 106 -28 160q0 96 53.5 154t141.5 58
q74 0 120.5 -39.5t46.5 -102.5q0 -34 -19 -55.5t-48 -21.5q-56 0 -56 52q0 27 22 42q13 9 48 12q14 0 14 12q0 18 -21 41q-28 31 -83 31q-58 0 -92 -42.5t-34 -113.5q0 -70 33 -187h164q24 0 24 -11q0 -14 -25 -14h-159v-12q0 -61 -35 -107q-35 -42 -71 -84q-1 -2 -1 -3
q0 -3 3 -3q4 0 12 6q48 35 105 35q39 0 94 -23q62 -26 84 -26q33 0 46 44q3 12 5 44q1 20 13 20q13 0 13 -22z" />
    <glyph glyph-name="section" unicode="&#xa7;" horiz-adv-x="533" 
d="M429 273q0 -73 -56 -134q41 -54 41 -114q0 -74 -48.5 -124t-120.5 -50q-59 0 -97 32.5t-38 81.5q0 33 18 52.5t48 19.5q22 0 38.5 -15t16.5 -35q0 -39 -69 -43q-22 -1 -22 -10q0 -25 32.5 -45.5t72.5 -20.5q97 0 97 111q0 50 -21 84t-78 76q-86 64 -108 92q-30 38 -30 93
q0 67 58 137q-34 45 -34 95q0 68 43.5 109.5t114.5 41.5q58 0 94.5 -30.5t36.5 -79.5q0 -61 -55 -61q-52 0 -52 45q0 23 13 32t51 11q9 0 9 8q0 22 -29 39.5t-65 17.5q-42 0 -67 -25t-25 -67q0 -40 23 -71.5t85 -76.5q70 -51 93 -88q30 -47 30 -88zM392 219q0 57 -99 132
q-19 15 -57 44q-3 2 -16 13l-44 39l-4 -5q-24 -30 -24 -68q0 -44 51 -90q23 -21 108 -88q12 -9 52 -44q33 38 33 67z" />
    <glyph glyph-name="bullet" unicode="&#x2022;" horiz-adv-x="693" 
d="M492 352q0 -60 -42 -102t-102 -42t-102 42t-42 102q0 61 42 102.5t104 41.5q58 0 100 -42.5t42 -101.5z" />
    <glyph glyph-name="paragraph" unicode="&#xb6;" horiz-adv-x="533" 
d="M515 685q0 -7 -27 -8q-41 -1 -51.5 -4t-14 -10.5t-3.5 -37.5v-411q0 -116 -3 -145q-9 -85 -47 -134q-68 -89 -174 -89q-56 0 -92.5 25.5t-36.5 64.5q0 26 17.5 43.5t44.5 17.5q53 0 53 -47q0 -31 -49 -46q-13 -4 -13 -11q0 -11 23.5 -20t50.5 -9q60 0 85 47q21 40 21 150
v309q-105 1 -161 36q-78 48 -78 133q0 106 87 138q48 18 152 18h193q23 0 23 -10zM391 328v347h-65v-509q0 -127 -2 -147q-7 -100 -43 -130l5 -6q69 45 90 117q13 45 15 160q0 -18 0 168z" />
    <glyph glyph-name="germandbls" unicode="&#xdf;" horiz-adv-x="495" 
d="M464 206q0 -110 -70 -173q-50 -45 -112 -45q-42 0 -69 22t-27 56q0 23 14 37.5t36 14.5q19 0 32 -11.5t13 -28.5q0 -26 -32 -40q-16 -7 -16 -14q0 -8 13 -14.5t29 -6.5q47 0 72.5 52.5t25.5 146.5q0 203 -138 203h-19q-14 0 -14 9q0 8 23 8q126 1 126 156q0 113 -86 113
q-71 0 -96 -71q-16 -46 -16 -166v-454l-118 -2q-36 0 -36 7q0 8 18 8q32 -1 39 3q14 6 14 34v343q0 161 28 219q46 95 161 95q74 0 124 -40.5t50 -100.5q0 -58 -41 -99t-108 -49v-5q50 -3 97 -31q83 -50 83 -176z" />
    <glyph glyph-name="registered" unicode="&#xae;" horiz-adv-x="803" 
d="M761 347q0 -149 -105 -254t-254 -105q-150 0 -254.5 105t-104.5 256q0 148 106.5 252t258.5 104q144 0 248.5 -106t104.5 -252zM724 349q0 136 -95.5 231t-231.5 95q-129 0 -223 -97.5t-94 -230.5q0 -136 94 -232.5t228 -96.5t228 96.5t94 234.5zM592 164q0 -28 -48 -28
q-49 0 -80 39q-12 16 -16 33q-4 14 -11 79q-4 39 -27 54q-18 12 -61 14v-162q0 -28 6 -30q10 -4 38 -4q13 0 13 -8t-16 -8h-7q-10 1 -65 1h-19q-17 -1 -32 -1h-24q-19 0 -19 8t22 8t26.5 3.5t4.5 23.5v326q0 22 -4 26.5t-24 4.5h-5q-3 -1 -7 -1q-13 0 -13 9t13 9h8
q12 -2 79 -2h38q8 0 20 1h15q61 0 97 -25.5t36 -68.5q0 -52 -51 -79q-29 -16 -82 -20q-5 0 -5 -3q1 -2 5 -2q64 -6 91.5 -40.5t35.5 -120.5q5 -47 30 -47q5 0 5 2q0 1 -1 2q-2 6 -2 8q0 17 17 17q19 0 19 -18zM452 461q0 80 -73 80q-22 0 -26 -5.5t-4 -15.5v-147
q103 0 103 88z" />
    <glyph glyph-name="copyright" unicode="&#xa9;" horiz-adv-x="803" 
d="M761 347q0 -149 -105 -254t-254 -105q-150 0 -254.5 105t-104.5 256q0 148 106.5 252t258.5 104q144 0 248.5 -106t104.5 -252zM724 349q0 136 -95.5 231t-231.5 95q-129 0 -223 -97.5t-94 -230.5q0 -136 94 -232.5t228 -96.5t228 96.5t94 234.5zM570 275q0 -4 -1 -16
q-3 -42 -3 -66q0 -5 1 -15t1 -24v-6q0 -11 -8 -11q-6 0 -21 28q-3 7 -6 13q-37 -45 -107 -45q-97 0 -160 61.5t-63 155.5q0 93 58 153t149 60q53 0 101 -30q14 -9 19 -9t9 10q8 22 16 22q7 0 7 -7q0 -5 -1 -10q-7 -36 -7 -109q0 -14 -10 -14q-8 0 -11 13q-13 64 -39 90
t-77 26q-60 0 -94 -52.5t-34 -144.5t37.5 -144.5t102.5 -52.5q100 0 121 120q3 16 11 16q9 0 9 -12z" />
    <glyph glyph-name="trademark" unicode="&#x2122;" horiz-adv-x="732" 
d="M718 356q0 -7 -14 -7h-7q-1 0 -11 1h-17h-26q-62 0 -68 -1h-5q-14 0 -14 7q0 8 16 8q29 0 32 3t3 33v230q-30 -87 -84 -252q-7 -24 -14 -24t-16 25q-23 63 -95 243v-240q0 -11 2.5 -14.5t20.5 -3.5q22 0 22 -7t-16 -7h-12q-8 1 -16 1q2 0 -58 -2q-14 0 -14 7q0 8 34 8
q10 0 11.5 3.5t1.5 23.5v236q0 38 -2.5 44.5t-16.5 7.5q-29 2 -29 9q0 6 7 7t50 1h46l4 -10l27 -68q21 -50 64 -162q19 59 58 170q11 31 24 70q30 1 77 1h10q22 0 22 -8q0 -7 -22.5 -8t-25.5 -10q-1 -3 -1 -54v-228q0 -19 3 -22t35 -3q14 0 14 -8zM318 605q0 -8 -8 -8
q-11 0 -12 14q-6 72 -71 70l-31 -1v-295q0 -15 5 -18t30 -4q10 0 10 -7t-14 -7h-6q-10 1 -35 1h-41h-25q-15 -1 -16 -1q-14 0 -14 7t15 7h11q15 0 17.5 3.5t2.5 21.5v292h-5q-50 0 -65 -8q-24 -13 -28 -56q-2 -17 -10 -17q-9 0 -9 13q0 32 7 84q7 1 17 1h19l38 -1h43l22 -1
q81 -4 145 3q1 -10 5 -47q3 -29 3 -46z" />
    <glyph glyph-name="acute" unicode="&#xb4;" horiz-adv-x="501" 
d="M380 663l-91 -95q-60 -63 -70 -63q-6 0 -6 5q0 2 2 6q11 27 33 78l32 70h33h14q13 -1 35 -1h18z" />
    <glyph glyph-name="dieresis" unicode="&#xa8;" horiz-adv-x="501" 
d="M384 558q0 -19 -13.5 -32t-33.5 -13q-21 0 -35 13.5t-14 33.5t14.5 34.5t35.5 14.5q20 0 33 -14.5t13 -36.5zM212 559q0 -19 -14.5 -33t-34.5 -14t-34 14t-14 34q0 21 14 35t35 14q19 0 33.5 -15t14.5 -35z" />
    <glyph glyph-name="AE" unicode="&#xc6;" horiz-adv-x="934" 
d="M913 157q0 -5 -1 -24q-2 -37 -2 -98v-41q-119 5 -381 5q-29 0 -75 -1h-50h-7q-20 0 -20 10t27 10q38 0 46 9t8 52v144h-246q-103 -162 -103 -187q0 -10 9.5 -12.5t62.5 -6.5q19 -1 19 -9q0 -9 -17 -9h-10h-55q-40 1 -88 1q-39 0 -50 3q-7 2 -7 7q0 8 26 10q60 4 80 36
q4 4 33 53l271 460q39 65 75 128h18l32 -1q32 -1 64 -1q23 0 78 1q50 1 78 1l104 -1q17 0 49 3q0 -4 10 -125l3 -37q1 -5 1 -12q0 -11 -9 -11q-7 0 -9 11q-14 89 -51.5 120t-182.5 31q-59 0 -85 -1v-297h43q112 0 134 30q14 19 17 69q3 38 12 38q11 0 11 -17q0 -6 -2 -35
q-3 -44 -3 -71q0 -98 4 -148q1 -13 1 -17q0 -13 -10 -13q-7 0 -9 4.5t-5 28.5q-8 61 -18 78t-45 28q-15 5 -130 6v-339q163 0 212 6q67 9 90 38q18 24 27 95q3 24 16 24q10 0 10 -26zM458 246v397q-25 -45 -70 -120q-34 -57 -89 -154q-29 -51 -71 -123h230z" />
    <glyph glyph-name="Oslash" unicode="&#xd8;" horiz-adv-x="720" 
d="M678 342q0 -149 -89.5 -251.5t-219.5 -102.5q-94 0 -176 56l-56 -93q-5 -9 -15 -9q-16 0 -16 11q0 2 8 15l56 93q-127 105 -127 291q0 152 90.5 252.5t228.5 100.5q91 0 168 -51l56 93q4 7 14 7q15 0 15 -11q0 -3 -6 -13l-57 -94q126 -114 126 -294zM503 610
q-49 77 -141 77q-93 0 -142 -71q-65 -94 -65 -269q0 -143 44 -238zM566 344q0 128 -47 238l-303 -500q62 -76 153 -76q122 0 171 143q26 75 26 195z" />
    <glyph glyph-name="infinity" unicode="&#x221e;" horiz-adv-x="713" 
d="M659 300q0 -75 -34 -127q-40 -59 -111 -59q-93 0 -148 124q-65 -124 -157 -124q-71 0 -115 58q-41 53 -41 126q0 75 35 127q39 59 111 59q91 0 148 -124q63 124 157 124q71 0 115 -58q40 -53 40 -126zM635 303q0 54 -29 88.5t-81 34.5q-77 0 -149 -162q46 -86 142 -86
q53 0 85 36t32 89zM336 334q-47 86 -141 86q-53 0 -85 -36t-32 -89q0 -51 28 -87t78 -36q51 0 95 59q23 32 57 103z" />
    <glyph glyph-name="plusminus" unicode="&#xb1;" horiz-adv-x="533" 
d="M474 318h-189v-186h-36v186h-190v36h190v185h36v-185h189v-36zM474 12h-415v36h415v-36z" />
    <glyph glyph-name="lessequal" unicode="&#x2264;" horiz-adv-x="549" 
d="M503 127l-456 143v61l456 143v-64l-351 -110l351 -109v-64zM503 0h-457v62h457v-62z" />
    <glyph glyph-name="greaterequal" unicode="&#x2265;" horiz-adv-x="549" 
d="M503 270l-457 -143v64l351 109l-351 110v64l457 -143v-61zM503 0h-457v62h457v-62z" />
    <glyph glyph-name="yen" unicode="&#xa5;" horiz-adv-x="559" 
d="M580 650q0 -7 -14 -8q-52 -3 -68 -18q-7 -6 -20 -33q-2 -4 -28 -59l-35 -74q-14 -31 -36 -74h107q18 0 18 -13q0 -11 -26 -11h-111l-7 -15q-19 -40 -21 -47q-4 -13 -4 -41v-6h151q18 0 18 -13q0 -11 -26 -11h-143v-165q0 -29 8 -35.5t48 -8.5q36 -2 36 -10t-13 -8h-10
l-63 2l-79 1q9 0 -87 -2q-6 -1 -14 -1q-13 0 -13 9q0 8 20 9q54 2 64 8t10 19l1 27v155h-169q-20 0 -20 12t28 12h161v22q-17 40 -42 87h-127q-20 0 -20 12t28 12h107q-37 78 -61 123q-15 28 -32 64q-27 56 -33 61q-10 9 -68 10q-15 0 -15 10q0 8 18 8q9 0 76 -2
q33 -1 46 -1q26 0 116 1q7 1 16 1q18 0 18 -9t-17 -9h-21q-55 0 -55 -20q0 -16 58 -129l85 -163l82 164q56 115 56 130q0 13 -26 16.5t-37 2.5q-21 -1 -21 9q0 8 44 8h29q95 0 114 -1t19 -8z" />
    <glyph glyph-name="mu" unicode="&#xb5;" horiz-adv-x="490" 
d="M500 34q0 -7 -22 -8q-78 -5 -137 -34q-4 -2 -7 -2q-6 0 -6 8l1 56q-46 -66 -127 -66q-57 0 -84 38q3 -22 7 -67q1 -14 6 -52l8 -51q2 -13 2 -25q0 -23 -17 -50.5t-31 -27.5q-16 0 -32 27.5t-16 53.5q0 6 11 82q20 138 20 229v229q0 35 -4 41t-27 7l-13 -1q-27 -2 -27 8
q0 7 17 7q18 0 52 -2q17 -1 20 -1q35 0 65 3v-279q0 -77 10 -102q16 -39 65 -39q53 0 78 44q18 32 18 102v155q0 34 -1 51l-2 33q-1 15 -6.5 17.5t-22.5 2.5q-42 -1 -42 9q0 6 21 6h9q8 -1 53 -1q60 0 74 1v-279q0 -72 3 -91t15.5 -22t56.5 -3q12 0 12 -7z" />
    <glyph glyph-name="product" unicode="&#x220f;" horiz-adv-x="823" 
d="M797 -216h-264v32h84v896h-407v-896h84v-32h-264v32h88v896h-88v32h767v-32h-88v-896h88v-32z" />
    <glyph glyph-name="pi" unicode="&#x3c0;" horiz-adv-x="549" 
d="M526 469q0 -51 -23 -70.5t-75 -20.5h-24q-4 -132 -4 -196v-86q6 -63 39 -63q39 0 51 43q7 24 7 75h25q0 -161 -106 -161q-66 0 -87 53q-16 40 -16 151q0 -6 4 184h-137q0 -227 -13 -294q-18 -94 -80 -94q-46 0 -61 48q-9 28 -9 86h24q1 -52 37 -52q45 0 62 75
q14 62 16 231h-22q-77 0 -87 -52h-23q4 74 46 101q34 22 113 22h254q66 0 66 22v1h23v-3z" />
    <glyph glyph-name="ordfeminine" unicode="&#xaa;" horiz-adv-x="360" 
d="M331 310q0 -11 -24 -23t-47 -12q-45 0 -45 41q-35 -43 -74 -43q-30 0 -49 15.5t-19 40.5q0 81 140 98v12q0 50 -5 67q-8 29 -45 29q-25 0 -37 -13t-12 -21q0 -4 5 -4q27 -3 27 -26q0 -29 -33 -29q-39 0 -39 36q0 32 28 52t73 20q57 0 81 -25q14 -15 14 -67v-110
q0 -36 2.5 -43t13.5 -7q10 0 25 12q7 6 13 6q7 0 7 -6zM213 369v42q-82 -19 -82 -65q0 -40 36 -40q46 0 46 63z" />
    <glyph glyph-name="ordmasculine" unicode="&#xba;" horiz-adv-x="360" 
d="M317 411q0 -59 -38.5 -98.5t-96.5 -39.5q-59 0 -99 39.5t-40 97.5q0 60 39 100t97 40q59 0 98.5 -40t39.5 -99zM250 410q0 125 -70 125q-32 0 -51 -33t-19 -91q0 -124 75 -124q65 0 65 123z" />
    <glyph glyph-name="Omega" unicode="&#x2126;" horiz-adv-x="768" 
d="M718 408q0 -108 -72 -177q-65 -61 -176 -82v-59h123q50 0 67 17.5t21 68.5h23l-10 -176h-252v170q80 16 122 88q36 63 36 150q0 103 -56 170q-59 71 -160 71q-102 0 -161 -71q-55 -66 -55 -170q0 -88 36 -150q41 -72 122 -88v-170h-252l-10 176h23q3 -50 21 -68t67 -18
h123v59q-112 21 -176 82q-72 69 -72 177q0 131 105 204q91 63 229 63t229 -63q105 -73 105 -204z" />
    <glyph glyph-name="ae" unicode="&#xe6;" horiz-adv-x="658" 
d="M633 109q0 -10 -14.5 -34t-29.5 -40q-46 -47 -122 -47q-124 0 -181 104q-47 -104 -135 -104q-50 0 -79.5 27t-29.5 72q0 81 99 133q41 21 130 42q0 89 -10 119q-17 52 -70 52q-35 0 -59.5 -18t-24.5 -43q0 -10 16 -10q10 0 20 -12.5t10 -26.5q0 -43 -44 -43
q-23 0 -38 14.5t-15 37.5q0 44 38 80t113 36q45 0 73.5 -12.5t58.5 -44.5q48 57 122 57q131 0 168 -129q-48 -20 -167 -40q-12 -2 -67 -12q-8 -1 -44 -8q-1 -13 -1 -36q0 -115 55 -167q36 -34 89 -34q80 0 120 86q4 8 11 8q8 0 8 -7zM551 316q-22 118 -94 118
q-93 0 -105 -156q142 19 199 38zM271 245q-153 -36 -153 -138q0 -35 21 -55.5t57 -20.5q66 0 74 106q1 13 1 108z" />
    <glyph glyph-name="oslash" unicode="&#xf8;" horiz-adv-x="480" 
d="M450 217q0 -98 -59 -163.5t-147 -65.5q-61 0 -114 33l-31 -51q-6 -10 -14 -10q-13 0 -13 10q1 3 3 7l5 9l31 50q-80 68 -80 181q0 98 59.5 164.5t146.5 66.5q57 0 106 -29l41 67q4 7 12 7q12 0 12 -10q0 -5 -7 -14l-38 -63q87 -72 87 -189zM325 390q-32 43 -84 43
q-56 0 -87.5 -57t-31.5 -157q0 -79 18 -135zM359 214q0 83 -21 151l-186 -307q40 -56 97 -56q56 0 84 63q26 59 26 149z" />
    <glyph glyph-name="questiondown" unicode="&#xbf;" horiz-adv-x="413" 
d="M298 395q0 -22 -16 -37.5t-38 -15.5q-23 0 -38.5 15.5t-15.5 38.5t16 38.5t39 15.5q22 0 37.5 -16t15.5 -39zM382 -127q0 -61 -45 -100t-115 -39q-78 0 -125.5 43t-47.5 113q0 52 27 98q18 31 100 102q73 63 73 111q0 15 -11 54q-1 4 -1 10q0 8 8 8q11 0 21 -29t10 -60
q0 -41 -16 -75.5t-59 -89.5q-63 -80 -63 -143q0 -54 29 -86t78 -32q47 0 78 32.5t31 81.5q0 11 -2 12q-2 -1 -7 -10q-11 -20 -38 -20q-45 0 -45 47t52 47q68 0 68 -75z" />
    <glyph glyph-name="exclamdown" unicode="&#xa1;" horiz-adv-x="356" 
d="M230 394q0 -22 -15.5 -37t-38.5 -15q-22 0 -37.5 15.5t-15.5 38.5q0 22 15.5 37.5t38.5 15.5q22 0 37.5 -16t15.5 -39zM234 -196q-35 -69 -56 -69q-14 0 -22.5 9.5t-29.5 50.5l-5 10q46 262 43 446q0 22 13 22t13 -25q0 -181 44 -444z" />
    <glyph glyph-name="logicalnot" unicode="&#xac;" horiz-adv-x="533" 
d="M474 0h-64v185h-351v36h415v-221z" />
    <glyph glyph-name="florin" unicode="&#x192;" horiz-adv-x="533" 
d="M601 633q0 -40 -38 -40q-37 0 -37 31q0 13 8.5 19t8.5 13q0 26 -38 26q-52 0 -86.5 -60t-93.5 -250h8l25 -1h14l47 1q6 1 17 1q15 0 15 -13t-17 -13q1 0 -29.5 1.5t-48.5 1.5h-9q-14 0 -29 -1q-77 -212 -108 -287q-33 -78 -73 -148q-101 -176 -210 -176q-39 0 -65 17
t-26 43q0 41 43 41q38 0 38 -27q0 -10 -12 -22q-3 -3 -3 -10q0 -21 29 -21q62 0 109 91q7 15 58 150l56 154l70 194q-5 0 -14 -1h-61l-13 -1q-17 -1 -17 12q0 15 29 15h83l12 30l31 82q27 72 77 137q59 77 156 77q41 0 67.5 -18.5t26.5 -47.5z" />
    <glyph glyph-name="Delta" unicode="&#x2206;" horiz-adv-x="612" 
d="M595 0h-574l276 672h22zM471 32l-198 491l-201 -491h399z" />
    <glyph glyph-name="guillemotleft" unicode="&#xab;" horiz-adv-x="417" 
d="M381 61q0 -6 -6 -6q-5 0 -10 6q-88 85 -147 138q-7 6 -7 13q0 25 1.5 30.5t11.5 14.5q77 68 131 136q9 12 16 12q8 0 8 -9q0 -20 -100 -170q12 -18 84 -131l14 -22q4 -6 4 -12zM219 61q0 -7 -6 -7q-5 0 -10 6q-94 92 -147 139q-7 6 -7 13q0 25 1.5 31t11.5 13
q86 82 131 137q10 12 16 12q8 0 8 -8q0 -19 -101 -171q33 -52 99 -154q4 -6 4 -11z" />
    <glyph glyph-name="guillemotright" unicode="&#xbb;" horiz-adv-x="417" 
d="M369 247q0 -25 -1.5 -30.5t-11.5 -14.5q-82 -73 -131 -136q-9 -12 -16 -12q-8 0 -8 8q0 20 101 171q-61 89 -86 131q-4 8 -13 23q-4 8 -4 11q0 6 6 6q5 0 10 -6q92 -90 147 -138q7 -6 7 -13zM206 247q0 -25 -1.5 -31t-11.5 -14q-74 -65 -131 -136q-10 -12 -16 -12
q-8 0 -8 9q0 18 101 170q-21 31 -98 154q-4 8 -4 11q0 6 6 6q5 0 10 -6q86 -84 146 -138q7 -6 7 -13z" />
    <glyph glyph-name="ellipsis" unicode="&#x2026;" horiz-adv-x="776" 
d="M700 47q0 -22 -15 -37.5t-38 -15.5t-38.5 15.5t-15.5 38.5q0 22 16 37.5t39 15.5q22 0 37 -15.5t15 -38.5zM442 48q0 -22 -15.5 -38t-38.5 -16q-22 0 -38 16t-16 38q0 23 16 38.5t39 15.5q22 0 37.5 -16t15.5 -38zM182 47q0 -22 -15.5 -37.5t-37.5 -15.5
q-23 0 -38.5 15.5t-15.5 38.5q0 22 15.5 37.5t38.5 15.5q22 0 37.5 -15.5t15.5 -38.5z" />
    <glyph glyph-name="nonbreakingspace" unicode="&#xa0;" horiz-adv-x="186" 
 />
    <glyph glyph-name="Agrave" unicode="&#xc0;" horiz-adv-x="602" 
d="M334 764q0 -5 -6 -5q-9 0 -70 63l-91 94l17 1l29 1h21q18 0 32 -1l41 -89q4 -8 11 -26l8 -18l6 -14q2 -4 2 -6zM647 7q0 -9 -15 -9q-10 0 -18 1l-127 2l-127 -2q-7 -1 -15 -1q-20 0 -20 10q0 11 27 11q88 1 88 18q0 1 -2 8l-8 27l-5 14q-9 31 -44 137h-214
q-60 -160 -60 -184q0 -14 12 -17q3 -1 50 -4q29 -1 29 -10q0 -10 -26 -10q-46 0 -107 4q-15 1 -31 1t-31 -2q-8 -1 -13 -1q-14 0 -14 9t31.5 10t45.5 9.5t22 32.5q129 368 210 591q2 12 8 27l5 18q3 11 8 11q3 0 5 -6q13 -39 59 -163q36 -97 179 -487q8 -22 20.5 -28
t51.5 -7q26 -1 26 -10zM375 246q-16 45 -53 149l-48 137q-42 -110 -101 -286h202z" />
    <glyph glyph-name="Atilde" unicode="&#xc3;" horiz-adv-x="602" 
d="M450 857q0 -24 -20.5 -57t-59.5 -33q-24 0 -91 35q-61 32 -73 32q-20 0 -20 -21q0 -11 15 -27q5 -5 5 -8q0 -8 -10 -8t-20 13t-10 26q0 27 21.5 46.5t51.5 19.5q34 0 93 -31t73 -31q12 0 22 35q5 17 14 17t9 -8zM647 7q0 -9 -15 -9q-10 0 -18 1l-127 2l-127 -2
q-7 -1 -15 -1q-20 0 -20 10q0 11 27 11q88 1 88 18q0 1 -2 8l-8 27l-5 14q-9 31 -44 137h-214q-60 -160 -60 -184q0 -14 12 -17q3 -1 50 -4q29 -1 29 -10q0 -10 -26 -10q-46 0 -107 4q-15 1 -31 1t-31 -2q-8 -1 -13 -1q-14 0 -14 9t31.5 10t45.5 9.5t22 32.5
q129 368 210 591q2 12 8 27l5 18q3 11 8 11q3 0 5 -6q13 -39 59 -163q36 -97 179 -487q8 -22 20.5 -28t51.5 -7q26 -1 26 -10zM375 246q-16 45 -53 149l-48 137q-42 -110 -101 -286h202z" />
    <glyph glyph-name="Otilde" unicode="&#xd5;" horiz-adv-x="720" 
d="M503 857q0 -24 -20.5 -57t-59.5 -33q-24 0 -91 35q-61 32 -73 32q-20 0 -20 -21q0 -11 15 -27q5 -5 5 -8q0 -8 -10 -8t-20 13t-10 26q0 27 21.5 46.5t51.5 19.5q34 0 93 -31t73 -31q12 0 22 35q5 17 14 17t9 -8zM678 343q0 -149 -89.5 -252t-219.5 -103
q-138 0 -232 104.5t-94 257.5q0 156 90.5 255.5t231.5 99.5q133 0 223 -104t90 -258zM566 338q0 183 -75 285q-47 64 -131 64q-80 0 -124 -49q-81 -90 -81 -293q0 -161 56.5 -250t158.5 -89q95 0 143 84q53 93 53 248z" />
    <glyph glyph-name="OE" unicode="&#x152;" horiz-adv-x="946" 
d="M926 158l-1 -19q-3 -57 -3 -103v-42q-103 5 -316 5h-158q-101 0 -132 5q-121 19 -197.5 114t-76.5 226q0 112 52 201.5t138 126.5q58 25 148 28q-40 -2 153 -3l135 -1q192 -1 225 3q5 -60 13 -162q1 -5 1 -13q0 -10 -9 -10q-7 0 -9 11q-16 92 -53.5 121.5t-180.5 29.5
q-54 0 -85 -1v-297h46q98 0 120.5 18t28.5 98q2 21 11 21q11 0 11 -18v-12q0 -36 -2.5 -61.5t-2.5 -32.5q0 -109 5 -147q1 -8 1 -15q0 -15 -10 -15q-7 0 -9.5 9.5t-9.5 59.5q-8 63 -68 72q-16 2 -121 4v-339q32 -1 73 -1q88 0 116 3q79 8 108 37q15 15 19.5 29.5t14.5 76.5
q3 18 15 18q10 0 10 -25zM471 74v554q0 36 -19 45q-10 5 -50 5q-73 0 -113 -17q-147 -62 -147 -307q0 -161 64 -249.5t179 -88.5q54 0 66 6q20 10 20 52z" />
    <glyph glyph-name="oe" unicode="&#x153;" horiz-adv-x="745" 
d="M720 109q0 -18 -30 -58q-48 -63 -135 -63q-96 0 -159 83q-58 -83 -154 -83q-90 0 -150.5 66t-60.5 164t60 164t149 66q94 0 153 -72q66 72 149 72q95 0 146 -65q27 -35 30 -83q-25 -3 -39 -3h-95q-31 0 -142 -3q-5 -30 -5 -63q0 -101 39 -155.5t111 -54.5q41 0 65 21
q28 24 41 52q10 22 19 22q8 0 8 -7zM633 313q-1 121 -87 121q-78 0 -101 -121h188zM360 219q0 108 -35 169q-26 46 -83 46q-56 0 -87.5 -58.5t-31.5 -162.5q0 -100 33.5 -155.5t94.5 -55.5q45 0 67 34q42 64 42 183z" />
    <glyph glyph-name="endash" unicode="&#x2013;" horiz-adv-x="495" 
d="M470 198h-446v52h446v-52z" />
    <glyph glyph-name="emdash" unicode="&#x2014;" horiz-adv-x="607" 
d="M585 198h-564v52h564v-52z" />
    <glyph glyph-name="quotedblleft" unicode="&#x201c;" horiz-adv-x="446" 
d="M391 548q0 -25 -18.5 -42.5t-45.5 -17.5q-37 0 -61.5 26t-24.5 67q0 75 58 107q42 23 68 23q11 0 11 -8q0 -7 -12 -10q-83 -22 -83 -83q0 -27 14 -46q2 34 43 34q22 0 36.5 -14.5t14.5 -35.5zM207 548q0 -25 -18.5 -42.5t-44.5 -17.5q-38 0 -62 26.5t-24 67.5
q0 74 58 106q42 23 67 23q11 0 11 -8q0 -7 -12 -10q-82 -22 -82 -84q0 -26 14 -45q2 34 42 34q22 0 36.5 -14.5t14.5 -35.5z" />
    <glyph glyph-name="quotedblright" unicode="&#x201d;" horiz-adv-x="446" 
d="M388 611q0 -74 -58 -106q-42 -23 -68 -23q-11 0 -11 8q0 7 12 10q46 13 64.5 31.5t18.5 50.5q0 28 -14 47q-2 -34 -43 -34q-22 0 -36.5 14.5t-14.5 35.5q0 25 18.5 42.5t45.5 17.5q38 0 62 -26.5t24 -67.5zM204 611q0 -73 -58 -106q-40 -23 -67 -23q-11 0 -11 8
q0 7 12 10q46 13 64 31t18 52q0 27 -13 46q0 -34 -43 -34q-22 0 -36.5 14.5t-14.5 35.5q0 25 18.5 42.5t45.5 17.5q37 0 61 -26.5t24 -67.5z" />
    <glyph glyph-name="quoteleft" unicode="&#x2018;" horiz-adv-x="262" 
d="M204 548q0 -25 -18.5 -42.5t-44.5 -17.5q-38 0 -62 26.5t-24 67.5q0 74 58 106q42 23 67 23q11 0 11 -8q0 -7 -12 -10q-82 -22 -82 -84q0 -26 14 -45q2 34 42 34q22 0 36.5 -14.5t14.5 -35.5z" />
    <glyph glyph-name="quoteright" unicode="&#x2019;" horiz-adv-x="262" 
d="M207 611q0 -73 -58 -106q-40 -23 -67 -23q-11 0 -11 8q0 7 12 10q46 13 64 31t18 52q0 27 -13 46q0 -34 -43 -34q-22 0 -36.5 14.5t-14.5 35.5q0 25 18.5 42.5t45.5 17.5q37 0 61 -26.5t24 -67.5z" />
    <glyph glyph-name="divide" unicode="&#xf7;" horiz-adv-x="533" 
d="M314 459q0 -21 -14 -35t-34 -14q-21 0 -35 14t-14 35q0 20 14 34t35 14q20 0 34 -14t14 -34zM474 318h-415v36h415v-36zM314 215q0 -21 -14 -35t-34 -14q-21 0 -35 14t-14 35q0 20 14.5 34t34.5 14t34 -14t14 -34z" />
    <glyph glyph-name="lozenge" unicode="&#x25ca;" horiz-adv-x="494" 
d="M491 289l-244 -522l-244 522l244 518zM435 289l-188 399l-188 -399l188 -403z" />
    <glyph glyph-name="ydieresis" unicode="&#xff;" horiz-adv-x="401" 
d="M343 558q0 -19 -13.5 -32t-33.5 -13q-21 0 -35 13.5t-14 33.5t14.5 34.5t35.5 14.5q20 0 33 -14.5t13 -36.5zM171 559q0 -19 -14.5 -33t-34.5 -14t-34 14t-14 34q0 21 14 35t35 14q19 0 33.5 -15t14.5 -35zM424 429q0 -7 -24 -8t-30.5 -4t-11.5 -17l-7 -18l-8 -25
q-14 -46 -42 -137q-79 -254 -131 -394q-32 -85 -88 -85q-24 0 -39.5 14t-15.5 36q0 19 12.5 31t32.5 12q27 0 39 -22q9 -17 15 -17q9 0 28 49q28 73 44 131q-74 194 -126 339q-36 99 -40 100q-6 5 -32.5 5t-26.5 10q0 8 13 8q11 0 34 -1.5t35 -1.5h18q21 1 58 2l51 1
q11 0 11 -8q0 -7 -37 -8q-31 -1 -31 -10q0 -8 20 -62q8 -23 17 -48l17 -50q7 -22 37 -100q10 -24 22 -58q96 301 96 316q0 9 -7.5 11t-42.5 2q-10 0 -10 8q0 7 12 7q5 0 8 -1q34 -2 56 -2h28q18 0 23.5 1t13.5 1q9 0 9 -7z" />
    <glyph glyph-name="Ydieresis" unicode="&#x178;" horiz-adv-x="607" 
d="M448 811q0 -19 -13.5 -32t-33.5 -13q-21 0 -35 13.5t-14 33.5t14.5 34.5t35.5 14.5q20 0 33 -14.5t13 -36.5zM276 813q0 -19 -14.5 -33t-34.5 -14t-34 14t-14 34q0 21 14 35t34 14t34.5 -15t14.5 -35zM618 686q0 -8 -17 -8q-55 -1 -68 -19q-12 -11 -86 -170
q-33 -71 -62 -125q-20 -37 -23 -50.5t-3 -58.5v-189q0 -33 8.5 -39t59.5 -9q27 -2 27 -10t-14 -8h-12l-140 3q-59 0 -97 -2q-6 -1 -14 -1q-14 0 -14 9t23 10q55 2 65 10t10 48v211q-10 22 -58 117l-100 198q-15 29 -36 65q-11 10 -47.5 10t-36.5 11q0 8 16 8q21 0 84 -2
q36 -1 52 -1l116 1q7 1 16 1q18 0 18 -10q0 -9 -34 -9q-62 0 -62 -22q0 -17 63 -137l91 -173q25 45 57 111l59 119q33 64 33 84q0 13 -17 15q-35 5 -47 4q-22 -1 -22 10q0 8 19 8l58 -1l33 1q102 3 102 -10z" />
    <glyph glyph-name="fraction" unicode="&#x2044;" horiz-adv-x="134" 
d="M276 693l-378 -693h-39l378 693h39z" />
    <glyph glyph-name="guilsinglleft" unicode="&#x2039;" horiz-adv-x="255" 
d="M219 61q0 -7 -6 -7q-5 0 -10 6q-94 92 -147 139q-7 6 -7 13q0 25 1.5 31t11.5 13q86 82 131 137q10 12 16 12q8 0 8 -8q0 -19 -101 -171q33 -52 99 -154q4 -6 4 -11z" />
    <glyph glyph-name="guilsinglright" unicode="&#x203a;" horiz-adv-x="255" 
d="M206 247q0 -25 -1.5 -31t-11.5 -14q-74 -65 -131 -136q-10 -12 -16 -12q-8 0 -8 9q0 18 101 170q-21 31 -98 154q-4 8 -4 11q0 6 6 6q5 0 10 -6q86 -84 146 -138q7 -6 7 -13z" />
    <glyph glyph-name="fi" unicode="&#xfb01;" horiz-adv-x="502" 
d="M492 6q0 -9 -17 -9q-1 0 -6.5 1t-17.5 1l-66 2l-88 -2q-5 -1 -12 -1q-11 0 -11 7q0 10 19 10h16q23 0 26.5 6t3.5 41v140v69q-1 60 -1 113v19q0 10 -4.5 12t-24.5 2h-138v-386q0 -13 7 -15t53 -3q16 0 16 -8q0 -7 -13 -7q-5 0 -9 1h-24l-32 1h-22q-1 0 -21.5 -1t-59.5 -1
h-19q-31 0 -31 7q0 8 22 8q35 0 42 2.5t8 11.5v390q-37 0 -43 1.5t-6 8.5q0 9 30 9h18v18q0 78 14.5 124t49.5 78q53 49 137 49q57 0 93.5 -24.5t36.5 -62.5q0 -22 -14 -36t-35 -14q-22 0 -37 14.5t-15 34.5q0 25 22 39q12 9 12 13q0 22 -66 22q-60 0 -87 -32.5t-27 -105.5
v-117h177q46 0 67 15q8 -16 8 -60v-22q-1 -10 -1 -23v-304q0 -21 14 -26q7 -2 33 -2h10q13 0 13 -8z" />
    <glyph glyph-name="fl" unicode="&#xfb02;" horiz-adv-x="504" 
d="M495 7q0 -9 -13 -9h-8q-13 0 -63 2q-24 1 -23 1q6 0 -40 -2l-23 -1h-19q-5 -1 -13 -1q-14 0 -14 9q0 7 24 7q30 0 38 4q3 2 4 11v541q-40 11 -40 48q0 26 22 39q12 9 12 13q0 22 -59 22q-109 0 -109 -138v-117h45q30 0 35 -1t5 -8q0 -9 -25 -9h-60v-387q0 -18 31.5 -18
t31.5 -8q0 -7 -13 -7q-6 0 -11 1l-67 1q-1 0 -18 -1q-20 -1 -59 -1h-20q-30 0 -30 8q0 7 22 7q35 0 43 3q5 2 7 11v391q-37 0 -43 1.5t-6 8.5q0 8 30 8h18v18q0 78 14.5 124t49.5 78q54 49 130 49q48 0 83 -21q12 4 30 12q5 4 18 9l8 3q7 -26 7 -91q0 -11 -1 -22v-91
q0 -44 1 -113v-155v-177q0 -32 2.5 -37.5t17 -6.5t18.5 -1h16q14 -1 14 -7z" />
    <glyph glyph-name="daggerdbl" unicode="&#x2021;" horiz-adv-x="533" 
d="M480 80q0 -9 -19.5 -14.5t-37.5 -25.5q-11 -12 -19 -12q-9 0 -33 17q-34 24 -92 24q0 -64 34 -105q10 -12 10 -18q0 -10 -18.5 -26.5t-23.5 -38.5q-4 -18 -14 -18q-8 0 -10.5 4.5t-8.5 27.5q-3 11 -22 29q-15 14 -15 22q0 5 15 25q27 37 29 98q-56 0 -103 -32
q-13 -9 -21 -9q-10 0 -22 14q-16 19 -42 26q-13 4 -13 12t14 12q27 7 44 28q10 10 18 10t23 -11q40 -28 102 -31q0 35 -10.5 55t-40.5 45q50 66 50 99q0 32 -51 99q52 37 52 99q-68 -5 -102 -30q-15 -11 -23 -11q-9 0 -17 10q-16 19 -45 27q-14 4 -14 12t27 16q13 5 28 22
q12 14 22 14q7 0 21 -10q41 -29 103 -31q-8 77 -40 112q-4 6 -4 12q0 8 15 21.5t18.5 19t8.5 27.5q3 14 14 14q10 0 14 -18q5 -22 27 -41q15 -15 15 -24q0 -5 -14 -22q-9 -8 -19.5 -42.5t-10.5 -58.5q58 2 92 25q23 16 33 16t19 -12q15 -19 36 -25t21 -15q0 -8 -14 -12
q-19 -5 -25.5 -9t-19.5 -18q-7 -10 -17 -10q-8 0 -29 15q-37 26 -96 26q-1 -62 51 -99q-50 -69 -50 -99q0 -32 50 -99q-52 -40 -51 -99q64 2 96 25q21 15 29 15t17 -10q17 -19 45 -27q14 -4 14 -12z" />
    <glyph glyph-name="bulletoperator" unicode="&#x2219;" horiz-adv-x="259" 
d="M183 227q0 -22 -15.5 -38t-38.5 -16t-38.5 16t-15.5 39q0 22 16 37.5t39 15.5q22 0 37.5 -15.5t15.5 -38.5z" />
    <glyph glyph-name="quotesinglbase" unicode="&#x201a;" horiz-adv-x="262" 
d="M207 7q0 -73 -58 -106q-41 -23 -67 -23q-11 0 -11 8q0 7 12 10q46 13 64 31t18 52q0 26 -13 45q0 -34 -43 -34q-22 0 -36.5 14.5t-14.5 35.5q0 25 18.5 42.5t45.5 17.5q37 0 61 -26.5t24 -66.5z" />
    <glyph glyph-name="quotedblbase" unicode="&#x201e;" horiz-adv-x="446" 
d="M388 7q0 -74 -58 -106q-42 -23 -68 -23q-11 0 -11 8q0 7 12 10q46 13 64.5 31t18.5 51q0 28 -14 46q-2 -34 -43 -34q-22 0 -36.5 14.5t-14.5 35.5q0 25 18.5 42.5t45.5 17.5q37 0 61.5 -26t24.5 -67zM204 7q0 -73 -58 -106q-41 -23 -67 -23q-11 0 -11 8q0 7 12 10
q46 13 64 31t18 52q0 26 -13 45q0 -34 -43 -34q-22 0 -36.5 14.5t-14.5 35.5q0 25 18.5 42.5t44.5 17.5q37 0 61.5 -26t24.5 -67z" />
    <glyph glyph-name="perthousand" unicode="&#x2030;" horiz-adv-x="1082" 
d="M1058 155q0 -90 -70 -140q-34 -24 -84 -24q-72 0 -118.5 48.5t-46.5 122.5q0 73 45.5 120t116.5 47q66 0 106 -41q51 -53 51 -133zM691 155q0 -90 -70 -140q-34 -24 -84 -24q-72 0 -118.5 48t-46.5 123q0 73 45.5 120t116.5 47q66 0 106 -41q51 -53 51 -133zM573 705
l-384 -705h-47l360 663q-49 -30 -112 -30q-44 0 -86 16q38 -54 38 -118q0 -70 -43 -117t-111 -47q-71 0 -117.5 48t-46.5 122q0 71 45 119.5t112 48.5q35 0 113 -27q58 -20 100 -20q65 0 132 47h47zM974 171q0 67 -20 110q-15 33 -54 33q-78 0 -78 -150q0 -156 81 -156
q38 0 54.5 44t16.5 119zM258 547q0 67 -20 110q-15 33 -53 33q-78 0 -78 -150q0 -156 80 -156q39 0 56 45q15 40 15 118zM607 173q0 65 -20 108q-15 33 -54 33q-78 0 -78 -150q0 -156 81 -156q38 0 55 45q16 42 16 120z" />
    <glyph glyph-name="Acircumflex" unicode="&#xc2;" horiz-adv-x="602" 
d="M431 754h-66q-35 33 -73 110q-22 -45 -48.5 -79t-40.5 -34q-9 0 -9 7q0 3 6 9q45 44 85 130q16 35 25 35q8 0 27 -36q39 -74 94 -142zM647 7q0 -9 -15 -9q-10 0 -18 1l-127 2l-127 -2q-7 -1 -15 -1q-20 0 -20 10q0 11 27 11q88 1 88 18q0 1 -2 8l-8 27l-5 14
q-9 31 -44 137h-214q-60 -160 -60 -184q0 -14 12 -17q3 -1 50 -4q29 -1 29 -10q0 -10 -26 -10q-46 0 -107 4q-15 1 -31 1t-31 -2q-8 -1 -13 -1q-14 0 -14 9t31.5 10t45.5 9.5t22 32.5q129 368 210 591q2 12 8 27l5 18q3 11 8 11q3 0 5 -6q13 -39 59 -163q36 -97 179 -487
q8 -22 20.5 -28t51.5 -7q26 -1 26 -10zM375 246q-16 45 -53 149l-48 137q-42 -110 -101 -286h202z" />
    <glyph glyph-name="Ecircumflex" unicode="&#xca;" horiz-adv-x="582" 
d="M427 754h-66q-35 33 -73 110q-22 -45 -48.5 -79t-40.5 -34q-9 0 -9 7q0 3 6 9q45 44 85 130q16 35 25 35q8 0 27 -36q39 -74 94 -142zM562 162q0 -4 -2 -49t-2 -86v-33q-98 5 -388 5q-35 0 -69 -1h-46h-10q-19 0 -19 9q0 6 6 7q3 0 38 3q26 2 31.5 11t5.5 47v562
q0 29 -8.5 34.5t-54.5 5.5q-16 0 -16 9t22 9l171 -1q9 0 113 1h140q30 0 55 4q2 -43 9 -119l4 -43q1 -5 1 -13q0 -10 -9 -10q-11 0 -16 25q-19 90 -62 114q-32 18 -168 18h-82v-293h24q112 0 136.5 17t33.5 99q2 21 11 21q11 0 11 -18t-2 -53t-2 -53q0 -107 4 -147
q1 -10 1 -17q0 -13 -11 -13q-7 0 -9.5 8.5t-8.5 55.5q-8 59 -49 73q-18 6 -94 6h-45v-336q220 0 258 9q66 15 75 128q2 25 13 25q10 0 10 -21z" />
    <glyph glyph-name="Aacute" unicode="&#xc1;" horiz-adv-x="602" 
d="M440 916l-91 -94q-61 -63 -70 -63q-6 0 -6 5q0 2 2 6q11 27 33 78l32 69q15 1 33 1q31 0 49 -1zM647 7q0 -9 -15 -9q-10 0 -18 1l-127 2l-127 -2q-7 -1 -15 -1q-20 0 -20 10q0 11 27 11q88 1 88 18q0 1 -2 8l-8 27l-5 14q-9 31 -44 137h-214q-60 -160 -60 -184
q0 -14 12 -17q3 -1 50 -4q29 -1 29 -10q0 -10 -26 -10q-46 0 -107 4q-15 1 -31 1t-31 -2q-8 -1 -13 -1q-14 0 -14 9t31.5 10t45.5 9.5t22 32.5q129 368 210 591q2 12 8 27l5 18q3 11 8 11q3 0 5 -6q13 -39 59 -163q36 -97 179 -487q8 -22 20.5 -28t51.5 -7q26 -1 26 -10z
M375 246q-16 45 -53 149l-48 137q-42 -110 -101 -286h202z" />
    <glyph glyph-name="Edieresis" unicode="&#xcb;" horiz-adv-x="582" 
d="M449 811q0 -19 -13.5 -32t-33.5 -13q-21 0 -35 13.5t-14 33.5t14.5 34.5t35.5 14.5q20 0 33 -14.5t13 -36.5zM277 813q0 -19 -14.5 -33t-34.5 -14t-34 14t-14 34q0 21 14 35t34 14t34.5 -15t14.5 -35zM562 162q0 -4 -2 -49t-2 -86v-33q-98 5 -388 5q-35 0 -69 -1h-46h-10
q-19 0 -19 9q0 6 6 7q3 0 38 3q26 2 31.5 11t5.5 47v562q0 29 -8.5 34.5t-54.5 5.5q-16 0 -16 9t22 9l171 -1q9 0 113 1h140q30 0 55 4q2 -43 9 -119l4 -43q1 -5 1 -13q0 -10 -9 -10q-11 0 -16 25q-19 90 -62 114q-32 18 -168 18h-82v-293h24q112 0 136.5 17t33.5 99
q2 21 11 21q11 0 11 -18t-2 -53t-2 -53q0 -107 4 -147q1 -10 1 -17q0 -13 -11 -13q-7 0 -9.5 8.5t-8.5 55.5q-8 59 -49 73q-18 6 -94 6h-45v-336q220 0 258 9q66 15 75 128q2 25 13 25q10 0 10 -21z" />
    <glyph glyph-name="Egrave" unicode="&#xc8;" horiz-adv-x="582" 
d="M349 764q0 -5 -6 -5q-9 0 -70 63l-91 94l17 1l29 1h21q18 0 32 -1l41 -89q4 -8 11 -26l8 -18l6 -14q2 -4 2 -6zM562 162q0 -4 -2 -49t-2 -86v-33q-98 5 -388 5q-35 0 -69 -1h-46h-10q-19 0 -19 9q0 6 6 7q3 0 38 3q26 2 31.5 11t5.5 47v562q0 29 -8.5 34.5t-54.5 5.5
q-16 0 -16 9t22 9l171 -1q9 0 113 1h140q30 0 55 4q2 -43 9 -119l4 -43q1 -5 1 -13q0 -10 -9 -10q-11 0 -16 25q-19 90 -62 114q-32 18 -168 18h-82v-293h24q112 0 136.5 17t33.5 99q2 21 11 21q11 0 11 -18t-2 -53t-2 -53q0 -107 4 -147q1 -10 1 -17q0 -13 -11 -13
q-7 0 -9.5 8.5t-8.5 55.5q-8 59 -49 73q-18 6 -94 6h-45v-336q220 0 258 9q66 15 75 128q2 25 13 25q10 0 10 -21z" />
    <glyph glyph-name="Iacute" unicode="&#xcd;" horiz-adv-x="314" 
d="M290 916l-91 -94q-61 -63 -70 -63q-6 0 -6 5q0 2 2 6q11 27 33 78l32 69q15 1 33 1q31 0 49 -1zM288 8q0 -8 -12 -8h-10q-6 3 -136 3q-25 0 -50 -2q-13 -1 -40 -1q-13 0 -13 9q0 8 26 9q40 1 47 9.5t7 57.5v526q0 49 -5 55q-6 10 -55 12q-19 1 -19 8q0 9 12 9l135 -2
q15 0 58 1l38 1q16 0 16 -9q0 -8 -44 -10q-25 -1 -30.5 -9t-5.5 -42v-534q0 -57 5 -62q11 -11 65 -13q11 0 11 -8z" />
    <glyph glyph-name="Icircumflex" unicode="&#xce;" horiz-adv-x="314" 
d="M281 754h-66q-35 33 -73 110q-22 -45 -48.5 -79t-40.5 -34q-9 0 -9 7q0 3 6 9q45 44 85 130q16 35 25 35q8 0 27 -36q39 -74 94 -142zM288 8q0 -8 -12 -8h-10q-6 3 -136 3q-25 0 -50 -2q-13 -1 -40 -1q-13 0 -13 9q0 8 26 9q40 1 47 9.5t7 57.5v526q0 49 -5 55
q-6 10 -55 12q-19 1 -19 8q0 9 12 9l135 -2q15 0 58 1l38 1q16 0 16 -9q0 -8 -44 -10q-25 -1 -30.5 -9t-5.5 -42v-534q0 -57 5 -62q11 -11 65 -13q11 0 11 -8z" />
    <glyph glyph-name="Idieresis" unicode="&#xcf;" horiz-adv-x="314" 
d="M276 812q0 -20 -13.5 -33t-33.5 -13t-34.5 14t-14.5 33q0 20 14.5 34.5t35.5 14.5q19 0 32.5 -14.5t13.5 -35.5zM134 813q0 -19 -14.5 -33t-34.5 -14t-34 14t-14 34q0 21 14 35t34 14t34.5 -15t14.5 -35zM288 8q0 -8 -12 -8h-10q-6 3 -136 3q-25 0 -50 -2q-13 -1 -40 -1
q-13 0 -13 9q0 8 26 9q40 1 47 9.5t7 57.5v526q0 49 -5 55q-6 10 -55 12q-19 1 -19 8q0 9 12 9l135 -2q15 0 58 1l38 1q16 0 16 -9q0 -8 -44 -10q-25 -1 -30.5 -9t-5.5 -42v-534q0 -57 5 -62q11 -11 65 -13q11 0 11 -8z" />
    <glyph glyph-name="Igrave" unicode="&#xcc;" horiz-adv-x="314" 
d="M184 764q0 -5 -6 -5q-9 0 -70 63l-91 94l17 1l29 1h21q18 0 32 -1l41 -89q4 -8 11 -26l8 -18l6 -14q2 -4 2 -6zM288 8q0 -8 -12 -8h-10q-6 3 -136 3q-25 0 -50 -2q-13 -1 -40 -1q-13 0 -13 9q0 8 26 9q40 1 47 9.5t7 57.5v526q0 49 -5 55q-6 10 -55 12q-19 1 -19 8
q0 9 12 9l135 -2q15 0 58 1l38 1q16 0 16 -9q0 -8 -44 -10q-25 -1 -30.5 -9t-5.5 -42v-534q0 -57 5 -62q11 -11 65 -13q11 0 11 -8z" />
    <glyph glyph-name="Oacute" unicode="&#xd3;" horiz-adv-x="720" 
d="M493 916l-91 -94q-61 -63 -70 -63q-6 0 -6 5q0 2 2 6q11 27 33 78l32 69q15 1 33 1q31 0 49 -1zM678 343q0 -149 -89.5 -252t-219.5 -103q-138 0 -232 104.5t-94 257.5q0 156 90.5 255.5t231.5 99.5q133 0 223 -104t90 -258zM566 338q0 183 -75 285q-47 64 -131 64
q-80 0 -124 -49q-81 -90 -81 -293q0 -161 56.5 -250t158.5 -89q95 0 143 84q53 93 53 248z" />
    <glyph glyph-name="Ocircumflex" unicode="&#xd4;" horiz-adv-x="720" 
d="M484 754h-66q-35 33 -73 110q-22 -45 -48.5 -79t-40.5 -34q-9 0 -9 7q0 3 6 9q45 44 85 130q16 35 25 35q8 0 27 -36q39 -74 94 -142zM678 343q0 -149 -89.5 -252t-219.5 -103q-138 0 -232 104.5t-94 257.5q0 156 90.5 255.5t231.5 99.5q133 0 223 -104t90 -258zM566 338
q0 183 -75 285q-47 64 -131 64q-80 0 -124 -49q-81 -90 -81 -293q0 -161 56.5 -250t158.5 -89q95 0 143 84q53 93 53 248z" />
    <glyph glyph-name="apple" unicode="&#xf8ff;" horiz-adv-x="790" 
d="M566 808q0 -52 -2 -62q-8 -42 -34 -68q-30 -30 -68 -53q-7 -4 -56 -9q-3 30 6 52.5t34 67.5q28 35 54 48q38 19 66 24zM733 213q-61 -131 -109 -174q-14 -12 -27 -24q-17 -11 -47 -16q-8 -1 -17 -1q-29 0 -55 12q-43 20 -69 20q-25 0 -69 -20q-27 -13 -53 -13q-9 0 -18 2
q-37 7 -63 30q-60 54 -109 160q-41 89 -41 190q0 23 3 41q20 108 86 160q51 40 132 40q27 0 69 -16t63 -16q22 0 47 11q36 14 42 16q18 5 44 5q81 0 132 -40q14 -11 38 -38q-47 -34 -67 -68q-27 -46 -26 -100q1 -56 33 -98q23 -31 43 -44q19 -9 38 -19z" />
    <glyph glyph-name="Ograve" unicode="&#xd2;" horiz-adv-x="720" 
d="M388 764q0 -5 -6 -5q-9 0 -70 63l-91 94l17 1l29 1h21q18 0 32 -1l41 -89q4 -8 11 -26l8 -18l6 -14q2 -4 2 -6zM678 343q0 -149 -89.5 -252t-219.5 -103q-138 0 -232 104.5t-94 257.5q0 156 90.5 255.5t231.5 99.5q133 0 223 -104t90 -258zM566 338q0 183 -75 285
q-47 64 -131 64q-80 0 -124 -49q-81 -90 -81 -293q0 -161 56.5 -250t158.5 -89q95 0 143 84q53 93 53 248z" />
    <glyph glyph-name="Uacute" unicode="&#xda;" horiz-adv-x="666" 
d="M497 916l-91 -94q-61 -63 -70 -63q-6 0 -6 5q0 2 2 6q11 27 33 78l32 69q15 1 33 1q31 0 49 -1zM657 685q0 -9 -18 -9q-3 0 -20 1q-5 1 -14 1q-25 0 -30 -13q-2 -7 -2 -23v-375q0 -146 -54.5 -212.5t-175.5 -66.5q-145 0 -204 82q-39 55 -39 181l-1 401q-3 18 -24 22
q-6 1 -37 1q-17 2 -17 10q0 9 14 9h18q5 0 23 -1h29l143 1q5 1 12 1q17 0 17 -11q0 -7 -6 -8t-40 -2q-14 0 -19 -2q-10 -4 -11 -14q-1 -4 -1 -57v-358q0 -132 42 -180t125 -48q152 0 172 173q3 26 3 220v57l1 80l-1 69v22q1 13 1 11q0 22 -21 27q-7 2 -41 2q-20 0 -20 11
q0 9 14 9q8 0 13 -1q12 -1 87 -1q11 0 25 1h19h15q23 0 23 -10z" />
    <glyph glyph-name="Ucircumflex" unicode="&#xdb;" horiz-adv-x="666" 
d="M475 754h-66q-35 33 -73 110q-22 -45 -48.5 -79t-40.5 -34q-9 0 -9 7q0 3 6 9q45 44 85 130q16 35 25 35q8 0 27 -36q39 -74 94 -142zM657 685q0 -9 -18 -9q-3 0 -20 1q-5 1 -14 1q-25 0 -30 -13q-2 -7 -2 -23v-375q0 -146 -54.5 -212.5t-175.5 -66.5q-145 0 -204 82
q-39 55 -39 181l-1 401q-3 18 -24 22q-6 1 -37 1q-17 2 -17 10q0 9 14 9h18q5 0 23 -1h29l143 1q5 1 12 1q17 0 17 -11q0 -7 -6 -8t-40 -2q-14 0 -19 -2q-10 -4 -11 -14q-1 -4 -1 -57v-358q0 -132 42 -180t125 -48q152 0 172 173q3 26 3 220v57l1 80l-1 69v22q1 13 1 11
q0 22 -21 27q-7 2 -41 2q-20 0 -20 11q0 9 14 9q8 0 13 -1q12 -1 87 -1q11 0 25 1h19h15q23 0 23 -10z" />
    <glyph glyph-name="Ugrave" unicode="&#xd9;" horiz-adv-x="666" 
d="M397 764q0 -5 -6 -5q-9 0 -70 63l-91 94l17 1l29 1h21q18 0 32 -1l41 -89q4 -8 11 -26l8 -18l6 -14q2 -4 2 -6zM657 685q0 -9 -18 -9q-3 0 -20 1q-5 1 -14 1q-25 0 -30 -13q-2 -7 -2 -23v-375q0 -146 -54.5 -212.5t-175.5 -66.5q-145 0 -204 82q-39 55 -39 181l-1 401
q-3 18 -24 22q-6 1 -37 1q-17 2 -17 10q0 9 14 9h18q5 0 23 -1h29l143 1q5 1 12 1q17 0 17 -11q0 -7 -6 -8t-40 -2q-14 0 -19 -2q-10 -4 -11 -14q-1 -4 -1 -57v-358q0 -132 42 -180t125 -48q152 0 172 173q3 26 3 220v57l1 80l-1 69v22q1 13 1 11q0 22 -21 27q-7 2 -41 2
q-20 0 -20 11q0 9 14 9q8 0 13 -1q12 -1 87 -1q11 0 25 1h19h15q23 0 23 -10z" />
    <glyph glyph-name="dotlessi" unicode="&#x131;" horiz-adv-x="251" 
d="M242 6q0 -9 -17 -9q1 0 -24 2q-30 2 -50 2l-104 -2q-5 -1 -12 -1q-11 0 -11 7q0 10 20 10q38 1 41.5 5.5t3.5 41.5l-1 303q-1 25 -2.5 29.5t-12.5 4.5l-29 -1q-4 -1 -10 -1q-11 0 -11 8q0 7 17 8q67 3 115 32l10 6q8 -15 8 -55q0 2 0 -10q-1 -12 -1 -39v-273
q0 -40 1.5 -47t10.5 -9q15 -4 44 -4q14 0 14 -8z" />
    <glyph glyph-name="circumflex" unicode="&#x2c6;" horiz-adv-x="501" 
d="M374 500h-66q-37 35 -73 111q-21 -43 -48.5 -78t-41.5 -35q-9 0 -9 7q0 4 6 8q46 46 85 130q16 35 25 35q8 0 27 -36q39 -75 95 -142z" />
    <glyph glyph-name="tilde" unicode="&#x2dc;" horiz-adv-x="501" 
d="M393 603q0 -25 -20.5 -57t-59.5 -32q-27 0 -89.5 33t-74.5 33q-7 0 -13.5 -7t-6.5 -14q0 -11 15 -27q5 -3 5 -8q0 -7 -10 -7t-20 12.5t-10 26.5q0 26 21.5 45.5t51.5 19.5q32 0 92 -30.5t74 -30.5q12 0 22 34q5 17 14 17t9 -8z" />
    <glyph glyph-name="macron" unicode="&#xaf;" horiz-adv-x="501" 
d="M369 536h-237v49h237v-49z" />
    <glyph glyph-name="macron" unicode="&#x2c9;" horiz-adv-x="501" 
d="M369 536h-237v49h237v-49z" />
    <glyph glyph-name="breve" unicode="&#x2d8;" horiz-adv-x="501" 
d="M361 627q0 -47 -33 -80.5t-79 -33.5q-49 0 -79.5 31t-30.5 80q0 12 9 12q4 0 6 -8q16 -64 96 -64t95 59q3 13 10 13q6 0 6 -9z" />
    <glyph glyph-name="dotaccent" unicode="&#x2d9;" horiz-adv-x="501" 
d="M299 558q0 -20 -14 -34t-35 -14q-22 0 -37 14.5t-15 35.5t15.5 36t37.5 15q20 0 34 -15.5t14 -37.5z" />
    <glyph glyph-name="ring" unicode="&#x2da;" horiz-adv-x="501" 
d="M338 596q0 -37 -25.5 -61.5t-64.5 -24.5q-35 0 -60.5 25t-25.5 60q0 37 25.5 62t62.5 25t62.5 -25t25.5 -61zM304 597q0 25 -15.5 41t-39.5 16q-22 0 -37 -17t-15 -42q0 -24 15.5 -40.5t38.5 -16.5t38 16.5t15 42.5z" />
    <glyph glyph-name="cedilla" unicode="&#xb8;" horiz-adv-x="501" 
d="M351 -106q0 -34 -27.5 -58t-67.5 -24q-22 0 -48 12.5t-26 23.5q0 6 7 6q4 0 15 -8q13 -11 33 -11t35.5 22t15.5 51q0 48 -37 48q-9 0 -14 -1v49h21v-35q40 0 66.5 -21.5t26.5 -53.5z" />
    <glyph glyph-name="hungarumlaut" unicode="&#x2dd;" horiz-adv-x="501" 
d="M479 663l-97 -95q-64 -63 -70 -63t-6 5l2 6l8 14q1 1 9 19q5 8 13 26l10 19l38 70h26h15q12 -1 32 -1h20zM298 663l-96 -95l-28 -28q-35 -35 -42 -35q-6 0 -6 5q0 3 2.5 7t7.5 13l9 19q4 7 24 45l36 70h27h15q12 -1 32 -1h19z" />
    <glyph glyph-name="ogonek" unicode="&#x2db;" horiz-adv-x="501" 
d="M419 -148q0 -6 -20 -20q-31 -21 -64 -21q-38 0 -64.5 23.5t-26.5 57.5q0 61 100 112h14q-51 -50 -51 -96q0 -31 16 -51t41 -20q20 0 36 13q8 7 13 7q6 0 6 -5z" />
    <glyph glyph-name="caron" unicode="&#x2c7;" horiz-adv-x="501" 
d="M372 671q0 -2 -6 -8q-45 -44 -85 -130q-16 -35 -25 -35q-8 0 -27 36q-43 80 -94 142h65q41 -41 73 -111q20 43 48 78t42 35q9 0 9 -7z" />
    <glyph glyph-name="Lslash" unicode="&#x141;" horiz-adv-x="564" 
d="M555 88q0 -27 -3 -95h-11q-6 0 -29 2t-52 2l-416 3q-17 0 -17 9q0 7 27 9q38 2 45.5 8.5t7.5 37.5v233l-57 -40q-6 -4 -11 -4q-13 0 -13 12q0 5 14 15l67 47v299q0 37 -7.5 43t-53.5 6q-19 0 -19 11q0 9 12 9h9q33 -3 131 -3q9 0 35 1.5t43 1.5h11q18 0 18 -10
q0 -6 -5.5 -7.5t-34.5 -2.5t-34.5 -9.5t-5.5 -52.5v-233l109 75q4 3 8 3q14 0 14 -11q0 -6 -13 -15l-118 -82v-327q27 -1 75 -1q117 0 165 12t65 45t20 89q1 13 12 13q13 0 12 -15l-1 -25v-9q1 -7 1 -14v-30z" />
    <glyph glyph-name="lslash" unicode="&#x142;" horiz-adv-x="235" 
d="M246 446q0 -4 -11 -12l-77 -53q1 -15 1 -40v-282q0 -30 1 -35.5t7 -7.5q1 -1 37 -2q23 0 23 -7q0 -9 -13 -9h-12q-2 0 -53 2l-31 1q-8 0 -80 -3q-6 -1 -12 -1q-15 -1 -15 9q0 7 24 7q37 0 40 6q2 3 2 84v234l-58 -40q-4 -3 -8 -3q-13 0 -13 12q0 4 12 12l67 47v247
q0 33 -2 36q-3 8 -16 8h-8l-28 -1q-14 0 -14 9q0 8 25 9q49 3 89 22q7 4 21 10l8 3q8 -28 7 -87l-1 -66v-147l69 47q2 2 6 2q13 0 13 -11z" />
    <glyph glyph-name="Scaron" unicode="&#x160;" horiz-adv-x="498" 
d="M375 924q0 -2 -6 -8q-45 -44 -85 -130q-16 -35 -25 -35q-8 0 -27 36q-39 75 -94 142h65q38 -37 73 -111q20 43 48 78t42 35q9 0 9 -7zM469 195q0 -86 -65.5 -146.5t-157.5 -60.5q-54 0 -129 33q-20 9 -30 9q-12 0 -15 -29q-1 -15 -13 -15q-10 0 -10 12q0 8 1 12
q8 61 8 113q0 10 -2 56q-1 6 -1 16q0 15 12 15q10 0 14 -24q26 -178 169 -178q61 0 94.5 34.5t33.5 97.5q0 56 -32.5 95.5t-111.5 78.5q-95 47 -132 91t-37 109q0 83 53.5 137t135.5 54q34 0 94 -23q21 -8 31 -8q11 0 14.5 4t6.5 21q2 10 11 10q10 0 10 -12q0 -8 -1 -12
q-3 -24 -3 -58q0 -48 5 -76l1 -16q1 -11 -9 -11q-11 0 -15 23q-11 59 -52 98.5t-92 39.5q-50 0 -79.5 -32t-29.5 -87q0 -64 43 -103q24 -22 104 -62q94 -47 135 -95.5t41 -110.5z" />
    <glyph glyph-name="scaron" unicode="&#x161;" horiz-adv-x="362" 
d="M308 671q0 -2 -6 -8q-45 -44 -85 -130q-16 -35 -25 -35q-8 0 -27 36q-43 80 -94 142h65q41 -41 73 -111q20 43 48 78t42 35q9 0 9 -7zM336 127q0 -58 -42.5 -98.5t-101.5 -40.5q-34 0 -83 24q-13 7 -23 7q-14 0 -21 -19q-4 -12 -11 -12t-7 8q0 5 1 12q3 20 3 59
q0 3 -1 24t-1 28v11q0 11 7 11q8 0 9 -11q6 -46 26 -72q40 -52 107 -52q36 0 58 21t22 56q0 39 -25 62q-14 13 -25.5 18.5t-67.5 26.5q-111 42 -111 126q0 56 38 94t94 38q20 0 60 -12q10 -3 18 -3q21 0 26 20q3 10 9 10q7 0 7 -8q0 -1 -1 -6l-1 -42q-1 -24 5 -77v-2
q0 -8 -8 -8q-6 0 -15 30q-11 36 -38.5 58t-63.5 22q-34 0 -56 -21t-22 -53q0 -50 67 -76q104 -41 132 -68q36 -35 36 -85z" />
    <glyph glyph-name="Zcaron" unicode="&#x17d;" horiz-adv-x="562" 
d="M403 924q0 -2 -6 -8q-45 -44 -85 -130q-16 -35 -25 -35q-8 0 -27 36q-39 75 -94 142h65q38 -37 73 -111q20 43 48 78t42 35q9 0 9 -7zM532 215q0 -7 -1 -11l-5 -33q-7 -44 -18 -129q-2 -14 -5 -44q7 0 -45.5 1t-112.5 1h-74q-142 0 -203 -6q-5 -1 -15 -1q-15 0 -15 8l2 6
q2 3 24 46q68 132 259 489q39 73 64 126q-23 5 -100 5q-122 0 -154 -50q-8 -13 -20.5 -53.5t-16.5 -69.5q-3 -21 -15 -21q-10 0 -10 10q0 8 1 12l7 48q3 23 8 50l7 41q4 23 12 59q60 -6 188 -6q43 0 92 1.5t86 1.5h16q9 0 16 1q-5 -16 -37 -82q-5 -15 -275 -524
q-12 -23 -36 -68q48 -3 117 -3q66 0 93 4q54 9 83 38q43 43 58 148q2 17 13 17q12 0 12 -12z" />
    <glyph glyph-name="zcaron" unicode="&#x17e;" horiz-adv-x="395" 
d="M331 671q0 -2 -6 -8q-45 -44 -85 -130q-16 -35 -25 -35q-8 0 -27 36q-43 80 -94 142h65q41 -41 73 -111q20 43 48 78t42 35q9 0 9 -7zM375 143q0 -5 -4 -22q-19 -81 -23 -122l-141 1q-62 0 -100 -1q-41 -2 -56 -2h-3q-27 0 -27 8q0 1 3 6q22 39 66 116l174 293
q-22 3 -63 3q-64 0 -90 -23.5t-41 -93.5q-3 -12 -13 -12q-8 0 -8 8q0 1 7 43q12 72 20 96q70 -3 265 -3h13q1 -2 1 -5q0 -11 -52 -100q-118 -200 -190 -317q27 -1 65 -1q119 0 146 44q21 34 32 84q3 9 12 9q7 0 7 -9z" />
    <glyph glyph-name="brokenbar" unicode="&#xa6;" horiz-adv-x="520" 
d="M288 345h-57v348h57v-348zM288 -173h-57v332h57v-332z" />
    <glyph glyph-name="Eth" unicode="&#xd0;" horiz-adv-x="716" 
d="M674 345q0 -175 -123 -273q-90 -72 -240 -72q-4 0 -36 1t-92 1h-50l-79 -1q-7 -1 -15 -1q-19 0 -19 10q0 9 32 9q41 0 51 15q4 7 4 38v270h-70q-17 0 -17 12t23 12h64v245q0 49 -7.5 57t-51.5 8q-23 0 -23 11q0 8 17 8q-1 0 22 -1t45 -1h107q179 0 255 -25
q91 -30 147 -119t56 -204zM562 350q0 166 -65 243.5t-204 77.5q-66 0 -80 -14q-6 -7 -6 -48v-243h134q15 0 15 -13q0 -11 -22 -11h-127v-265q0 -28 1.5 -34t8.5 -10q24 -12 101 -12q109 0 174 76q70 81 70 253z" />
    <glyph glyph-name="eth" unicode="&#xf0;" horiz-adv-x="480" 
d="M449 248q0 -120 -70 -197q-57 -63 -142 -63q-83 0 -139 54q-67 65 -67 163t59.5 163.5t149.5 65.5q55 0 89 -35q-30 97 -80 162q-2 -1 -14 -6.5t-28 -13.5l-46 -23q-13 -7 -34 -18q-26 -14 -33 -14q-11 0 -11 10q0 7 25 19l86 42q26 13 43 20q-19 26 -60 63.5t-70 53.5
q-11 6 -11 8q0 5 9 5q25 0 87 -34q39 -21 93 -70l35 17q55 27 64 27q10 0 10 -9q0 -7 -11 -12q-25 -11 -53 -24q-9 -5 -29 -14q148 -149 148 -340zM358 217q0 202 -119 202q-55 0 -86 -57.5t-31 -158.5q0 -94 31 -147t86 -53q56 0 87.5 56.5t31.5 157.5z" />
    <glyph glyph-name="Yacute" unicode="&#xdd;" horiz-adv-x="607" 
d="M461 916l-91 -94q-61 -63 -70 -63q-6 0 -6 5q0 2 2 6q11 27 33 78l32 69q15 1 33 1q31 0 49 -1zM618 686q0 -8 -17 -8q-55 -1 -68 -19q-12 -11 -86 -170q-33 -71 -62 -125q-20 -37 -23 -50.5t-3 -58.5v-189q0 -33 8.5 -39t59.5 -9q27 -2 27 -10t-14 -8h-12l-140 3
q-59 0 -97 -2q-6 -1 -14 -1q-14 0 -14 9t23 10q55 2 65 10t10 48v211q-10 22 -58 117l-100 198q-15 29 -36 65q-11 10 -47.5 10t-36.5 11q0 8 16 8q21 0 84 -2q36 -1 52 -1l116 1q7 1 16 1q18 0 18 -10q0 -9 -34 -9q-62 0 -62 -22q0 -17 63 -137l91 -173q25 45 57 111
l59 119q33 64 33 84q0 13 -17 15q-35 5 -47 4q-22 -1 -22 10q0 8 19 8l58 -1l33 1q102 3 102 -10z" />
    <glyph glyph-name="Thorn" unicode="&#xde;" horiz-adv-x="529" 
d="M511 377q0 -43 -24 -83t-63 -63q-58 -34 -139 -34q-35 0 -78 7v-146q0 -27 10.5 -33.5t59.5 -8.5q11 0 11 -8t-12 -8h-10l-66 2q-36 1 -39 1q-15 0 -53 -1.5t-57 -1.5h-5q-19 0 -19 9q0 8 26 9q36 1 45 8t9 32v577q0 29 -7.5 35t-52.5 8q-19 1 -19 8q0 9 12 9h9
q15 0 64 -1t62 -1q-3 0 26.5 1t57.5 1h11q17 0 17 -9q0 -8 -44 -10q-25 -1 -30.5 -9t-5.5 -42v-88q82 0 127 -3q78 -5 127.5 -49t49.5 -108zM406 374q0 144 -138 144q-42 0 -55 -14q-6 -6 -6 -29v-256q107 1 153 36.5t46 118.5z" />
    <glyph glyph-name="thorn" unicode="&#xfe;" horiz-adv-x="489" 
d="M458 222q0 -101 -56 -167.5t-141 -66.5q-67 0 -102 48l1 -253q1 -10 11.5 -12.5t56.5 -3.5q12 0 12 -9q0 -7 -16 -7h-16q-10 1 -53 1q5 0 -25 -1h-76h-25q-27 0 -27 7q0 9 12 9h30q29 0 31 13q1 6 1 92v740q0 33 -2 36q-3 8 -16 8h-8l-28 -1q-14 0 -14 9q0 7 25 9
q44 0 92 23q5 4 18 9l8 3q7 -26 7 -89q0 -12 -1 -23v-196q41 49 103 49q82 0 134 -56q64 -69 64 -171zM369 224q0 95 -33.5 151t-89.5 56q-34 0 -61 -25.5t-27 -57.5l1 -10v-17v-76q0 -130 4 -165q4 -31 29.5 -53t58.5 -22q55 0 86.5 59t31.5 160z" />
    <glyph glyph-name="minus" unicode="&#x2212;" horiz-adv-x="533" 
d="M474 318h-415v36h415v-36z" />
    <glyph glyph-name="onesuperior" unicode="&#xb9;" horiz-adv-x="354" 
d="M281 285q0 -8 -18 -8h-8q-8 0 -21 1h-17h-23h-34q-22 -1 -33 -1h-19q-20 0 -20 9q0 8 13 8h30q16 0 17 7q0 -2 1 7v29v277q0 23 -5 23q-19 -3 -41 -3h-10q-13 0 -13 7q0 6 12 8q61 8 108 49q7 6 11 6q7 0 8 -4t1 -27v-370q1 -9 12 -9q49 0 49 -9z" />
    <glyph glyph-name="twosuperior" unicode="&#xb2;" horiz-adv-x="354" 
d="M325 394q0 -1 -1.5 -9t-3.5 -24l-5 -45l-2 -30l-1 -10q-93 3 -118 3l-163 -2q-11 0 -11 8q0 7 35 33q98 74 133 125.5t35 123.5q0 111 -78 111q-28 0 -48.5 -14.5t-20.5 -34.5q0 -8 11 -8q44 0 44 -39q0 -36 -39 -36q-52 0 -52 54q0 45 34 72.5t90 27.5q61 0 98 -36.5
t37 -95.5q0 -65 -44.5 -118.5t-151.5 -118.5h40q27 1 55 1q57 0 70.5 2t21.5 10q4 6 12 47q3 13 13 13t10 -10z" />
    <glyph glyph-name="threesuperior" unicode="&#xb3;" horiz-adv-x="354" 
d="M313 396q0 -53 -47.5 -89t-118.5 -36q-50 0 -80 18t-30 49q0 43 46 43q41 0 41 -35q0 -24 -29 -35q-7 -3 -7 -6q0 -17 49 -17q46 0 74 30t28 77q0 45 -23 71t-63 26q-9 0 -19 -1h-4q-14 0 -14 8q0 7 20 10q88 13 88 90q0 37 -19.5 58.5t-52.5 21.5q-23 0 -41 -9t-18 -20
q0 -7 17 -11q26 -6 26 -30q0 -33 -34 -33q-49 0 -49 46q0 35 32 56.5t84 21.5q57 0 92 -27.5t35 -71.5q0 -82 -111 -93v-4q61 -5 94.5 -32t33.5 -76z" />
    <glyph glyph-name="onehalf" unicode="&#xbd;" horiz-adv-x="843" 
d="M796 116q0 -4 -5 -33q-3 -20 -5 -44l-2 -31l-1 -10q-75 4 -119 3l-162 -2q-11 0 -11 8q0 6 13 16q93 72 115 95q75 77 75 171q0 111 -78 111q-29 0 -49 -14.5t-20 -34.5q0 -8 11 -8q44 0 44 -39q0 -36 -39 -36q-52 0 -52 54q0 45 34 72.5t90 27.5q61 0 98 -36.5t37 -95.5
q0 -65 -43.5 -117.5t-152.5 -119.5l36 1h59q57 0 70.5 2t21.5 10q3 4 12 47q3 13 13 13t10 -10zM600 693l-378 -693h-39l378 693h39zM263 285q0 -8 -18 -8h-8q-8 0 -21 1h-17h-23h-34q-22 -1 -33 -1h-19q-20 0 -20 9q0 8 13 8h30q16 0 17 7q0 -2 1 7v29v277q0 23 -5 23
q-19 -3 -41 -3h-10q-13 0 -13 7q0 6 12 8q61 8 108 49q7 6 11 6q7 0 8 -4t1 -27v-370q1 -9 12 -9q49 0 49 -9z" />
    <glyph glyph-name="onequarter" unicode="&#xbc;" horiz-adv-x="843" 
d="M787 69q0 -10 -9 -10q-8 0 -9.5 4.5t-4.5 32.5q-1 15 -10 16q-13 2 -35 2v-70q0 -18 1.5 -22t9.5 -5q-6 0 40 -1q13 0 13 -8t-30 -8h-66q-19 0 -40 -1h-35q-8 -1 -15 -1q-17 0 -17 9q0 10 24 9t38 2q7 2 7 25v69h-50q-83 0 -104 2t-21 9q0 4 94 123q40 51 73 96
q22 30 42 56q18 23 25 23q11 0 11 -14v-275q8 0 28 1q12 0 14 4.5t2 30t11 25.5q12 0 11 -14l-1 -22q-2 -51 3 -80v-8zM630 693l-378 -693h-39l378 693h39zM269 285q0 -8 -18 -8h-8q-8 0 -21 1h-17h-23h-34q-22 -1 -33 -1h-19q-20 0 -20 9q0 8 13 8h30q16 0 17 7q0 -2 1 7
v29v277q0 23 -5 23q-19 -3 -41 -3h-10q-13 0 -13 7q0 6 12 8q61 8 108 49q7 6 11 6q7 0 8 -4t1 -27v-370q1 -9 12 -9q49 0 49 -9zM653 326q-44 -64 -138 -187l-5 -6q29 -1 73 -1h66v40q0 30 1 54.5t3 99.5z" />
    <glyph glyph-name="threequarters" unicode="&#xbe;" horiz-adv-x="843" 
d="M799 70q0 -11 -9 -11q-11 0 -12 19q-2 29 -6 32.5t-41 3.5v-70q0 -18 1.5 -21.5t9.5 -5.5q-5 0 40 -1q13 0 13 -9q0 -7 -30 -7h-66q-19 0 -40 -1h-35q-8 -1 -15 -1q-17 0 -17 9q0 10 24 9t38 2q7 2 7 25v69h-50q-83 0 -104 2t-21 9q0 3 95 123q20 25 80 107q50 68 59 68
q11 0 11 -18v-271q11 1 27.5 1t16.5 24t2 30t9 6q12 0 11 -14l-1 -25q-1 -34 3 -77v-7zM660 693l-378 -693h-39l378 693h39zM331 396q0 -53 -47.5 -89t-118.5 -36q-50 0 -80 18t-30 49q0 43 46 43q41 0 41 -35q0 -24 -29 -35q-7 -3 -7 -6q0 -17 49 -17q46 0 74 30t28 77
q0 45 -23 71t-63 26q-9 0 -19 -1h-4q-14 0 -14 8q0 7 20 10q88 13 88 90q0 37 -19.5 58.5t-52.5 21.5q-23 0 -41 -9t-18 -20q0 -7 17 -11q26 -6 26 -30q0 -33 -34 -33q-49 0 -49 46q0 35 32 56.5t84 21.5q57 0 92 -27.5t35 -71.5q0 -82 -111 -93v-4q61 -5 94.5 -32t33.5 -76
zM665 326q-33 -44 -73 -101q-9 -13 -29 -40l-41 -52q29 -1 73 -1h66v40q0 30 1 54.5t3 99.5z" />
    <glyph glyph-name="periodcentered" unicode="&#xb7;" horiz-adv-x="259" 
d="M183 227q0 -22 -15.5 -38t-38.5 -16t-38.5 16t-15.5 39q0 22 16 37.5t39 15.5q22 0 37.5 -15.5t15.5 -38.5z" />
    <glyph glyph-name="sfthyphen" unicode="&#xad;" horiz-adv-x="305" 
d="M290 198h-275v52h275v-52z" />
    <glyph glyph-name="notequal" unicode="&#x2260;" horiz-adv-x="549" 
d="M501 139h-279l-117 -117l-39 40l77 77h-95v58h148l79 78h-227v58h279l117 117l40 -40l-78 -77h95v-58h-147l-79 -78h226v-58z" />
    <glyph glyph-name="partialdiff" unicode="&#x2202;" horiz-adv-x="494" 
d="M436 367q0 -130 -47 -238q-61 -142 -175 -142q-74 0 -116 59q-36 51 -36 129q0 79 49 140q52 65 129 65q87 0 118 -93q12 45 12 148q0 167 -63 167q-17 0 -50 -35t-56 -35q-37 0 -37 32q0 34 36 54q30 17 66 17q93 0 137 -93q33 -71 33 -175zM341 224q0 125 -85 125
q-65 0 -97 -84q-23 -60 -23 -137q0 -119 84 -119q63 0 96 81q25 61 25 134z" />
    <glyph glyph-name="summation" unicode="&#x2211;" horiz-adv-x="713" 
d="M661 20q-10 -43 -53 -236h-572l398 436l-384 524h550l33 -230h-34q-33 108 -92.5 153t-171.5 45h-142l325 -446l-359 -394h212q109 0 158 25q61 30 97 123h35z" />
    <glyph glyph-name="integral" unicode="&#x222b;" horiz-adv-x="274" 
d="M364 690q0 -48 -49 -48q-26 0 -43.5 37t-29.5 37q-38 0 -48 -109q-3 -31 -12 -309q-9 -272 -47 -362q-50 -117 -144 -117q-33 0 -57 17.5t-24 49.5q0 47 49 47q26 0 44 -36.5t30 -36.5q36 0 47 109q6 58 9 220q4 169 11 250q11 135 39 201q49 117 144 117q33 0 57 -17.5
t24 -49.5z" />
    <glyph glyph-name="radical" unicode="&#x221a;" horiz-adv-x="549" 
d="M594 764h-57l-290 -784h-32l-156 431l-61 -22l-12 39l138 48l125 -346l252 681h93v-47z" />
    <glyph glyph-name="approxequal" unicode="&#x2248;" horiz-adv-x="549" 
d="M531 297q-81 -54 -146 -54q-34 0 -105.5 23.5t-109.5 23.5q-60 0 -152 -65v69q86 56 157 56q38 0 84 -14q29 -10 88 -28q21 -5 43 -5q54 0 141 63v-69zM531 178q-79 -54 -146 -54q-32 0 -105.5 23.5t-114.5 23.5q-55 0 -147 -65v69q89 57 158 57q35 0 84 -15l81 -25
q26 -8 49 -8q53 0 141 64v-70z" />
    <glyph glyph-name="dotlessj" unicode="&#x237;" horiz-adv-x="237" 
d="M174 -26q0 -107 -37 -169.5t-101 -62.5q-31 0 -51.5 16t-20.5 40q0 47 51 47q42 0 42 -35q0 -9 -6 -32q-1 -2 -1 -8q0 -9 6 -9q19 0 27.5 30.5t8.5 153.5l-1 441q-1 13 -15 13h-11q-4 -1 -46 -1q-11 0 -11 8q0 7 26 7q71 -1 104 24q18 11 23 11q8 0 9 -11.5t2 -75.5
l1 -119q0 -16 1 -43v-31v-194z" />
    <glyph glyph-name="slong" unicode="&#x17f;" horiz-adv-x="264" 
d="M171 27q0 -14 28 -14q43 1 47 -4q1 -1 1 -4q0 -7 -12 -7q-6 0 -10 1l-82 1l-109 -2q-18 0 -18 7q0 8 14 8q50 0 55 6q2 2 2 6l1 13v380q-37 0 -43 1t-6 8q0 9 18 9h32q4 127 34 183q46 86 138 86q44 0 72 -21t28 -55q0 -21 -12.5 -34.5t-32.5 -13.5q-19 0 -32 12t-13 30
q0 15 13 35q3 5 3 9q0 23 -33 23q-56 0 -74 -72q-9 -38 -9 -133v-458z" />
    <glyph glyph-name="oopen" unicode="&#x254;" horiz-adv-x="409" 
d="M31 91q0 46 45 46q44 0 44 -42q0 -11 -10 -33q-3 -7 -3 -14q0 -20 20.5 -33t51.5 -13q60 0 93 52t33 146q0 106 -34 163.5t-96 57.5q-42 0 -75 -26q-15 -12 -39 -46q-5 -5 -9 -5q-10 0 -10 8q0 13 35 49q45 47 115 47q88 0 145.5 -63t57.5 -159q0 -103 -61 -170.5
t-153 -67.5q-59 0 -104.5 31t-45.5 72z" />
    <glyph glyph-name="schwa" unicode="&#x259;" horiz-adv-x="430" 
d="M31 327q0 10 15.5 35.5t31.5 41.5q43 44 115 44q90 0 150.5 -65t60.5 -161q0 -100 -57.5 -167t-143.5 -67q-71 0 -119 41.5t-51 106.5q32 5 85 4l70 -1q7 0 120 3q5 33 5 63q0 101 -38.5 155.5t-108.5 54.5q-40 0 -64 -18t-52 -69q-4 -8 -11 -8q-8 0 -8 7zM118 123
q4 -120 86 -120q81 0 101 120h-187z" />
    <glyph glyph-name="mturned" unicode="&#x26f;" horiz-adv-x="703" 
d="M11 440q0 8 17 8q2 0 21.5 -1t52.5 -1q3 0 106 2q13 0 13 -7q0 -8 -11 -8h-8l-25 -1q-15 -1 -17.5 -7t-2.5 -42v-248q0 -58 15.5 -82.5t52.5 -24.5q26 0 48.5 15.5t31.5 39.5q4 15 4 111v189q0 33 -1 38q-3 12 -18 12h-29q-13 0 -13 8q0 7 15 7h7q10 -2 68 -2
q20 0 53.5 1t40.5 1h11q12 0 12 -8q0 -5 -6 -6t-40 -1q-16 -1 -17 -10l-1 -14v-279q0 -58 14.5 -80t51.5 -22t61.5 23t24.5 58v284q0 30 -4.5 35.5t-29.5 5.5h-8q-6 -1 -11 -1q-11 0 -11 8q0 7 13 7h10q24 -3 75 -2l98 2q14 0 14 -8q0 -7 -13 -7q-38 0 -44 -3.5t-7 -12.5
v-260q0 -75 3 -88t29 -13h14q9 1 19 1q13 0 13 -7q0 -6 -4.5 -7t-32.5 -3q-23 -1 -57.5 -12t-39.5 -19q-11 -11 -16 -11t-6 8t-2 56q-40 -64 -123 -64q-89 0 -108 67q-39 -67 -125 -67q-74 0 -100 53q-14 28 -14 93v247q0 34 -3.5 37.5t-31.5 5.5l-18 -1q-11 -1 -11 7z" />
    <glyph glyph-name="rturned" unicode="&#x279;" horiz-adv-x="338" 
d="M6 66q0 23 14 38t36 15q18 0 30 -10.5t12 -26.5q0 -14 -9 -24t-9 -14q0 -15 22 -15q28 0 48 35q23 41 23 152v198q0 12 -8.5 15t-51.5 4q-11 2 -11 8q0 7 13 7q23 0 43 -1t76 -1q29 0 42 1t33 1q16 0 16 -7t-13 -7h-14q-34 0 -40 -8q-2 -4 -2 -37v-275q0 -55 16.5 -63.5
t52.5 -9.5q12 0 12 -7t-10 -7h-7q-15 0 -30 1.5t-13 1.5q-37 0 -82 -21l-13 -6l-8 -3q-4 24 -4 48v20q-32 -70 -90 -70q-32 0 -53 19.5t-21 48.5z" />
    <glyph glyph-name="tturned" unicode="&#x287;" horiz-adv-x="284" 
d="M6 448q0 9 25 32q43 39 102 39q55 0 83 -28q16 -16 16 -94v-298q1 -10 11 -11h38q22 0 22 -7t-11 -8q-78 -7 -122 -76q-6 -9 -15 -9q-7 0 -7 7v4q1 5 1 17q0 42 -4 54q-9 2 -30 2q-55 0 -73 -5q-4 -1 -7 -1q-8 0 -8 9q0 15 81 15q14 0 41 -1v185q0 140 -7 175.5t-46 35.5
q-33 0 -74 -37q-4 -5 -9 -5q-7 0 -7 5z" />
    <glyph glyph-name="vturned" unicode="&#x28c;" horiz-adv-x="384" 
d="M-28 -4q0 8 19 8q7 0 18 -1h6q18 0 28 22l12 38l84 258q7 20 20 61q16 55 26 55q7 0 14 -19q5 -12 10 -27q81 -219 82 -218q52 -148 63 -161q9 -9 28 -8l23 1q10 0 10 -8t-14 -8l-70 2q-16 0 -63 -1q-51 -1 -53 -1h-5q-10 0 -10 7q0 8 31 8t31 8q0 11 -9 33
q-16 40 -62 172q-20 59 -33 90q-28 -89 -50 -153q-44 -130 -44 -142q0 -9 15 -9q8 0 13 1h9q13 0 13 -8q0 -7 -12 -7l-62 1l-38 -1q-30 -1 -30 7z" />
    <glyph glyph-name="wturned" unicode="&#x28d;" horiz-adv-x="599" 
d="M-29 -3q0 8 15 8q11 0 18 -1h8q21 0 40 59q11 38 21 76l31 100q17 52 50 166q9 34 17 34q7 0 17.5 -25t53.5 -143q11 -31 33 -90q15 -39 23 -65q39 110 101 311q4 12 12 12t14 -15q2 -7 12 -34l24 -64q10 -26 39 -117t34 -108q28 -80 41 -92q9 -4 32.5 -4t23.5 -9
q0 -7 -11 -7h-8h-35q-33 1 -72 1q-16 0 -33 -1h-21h-12q-14 0 -14 8q0 9 10 9l25 -1q24 -1 24 10q0 9 -19 63q-33 94 -78 236q-43 -140 -78 -241l-16 -48q-11 -38 -21 -38t-21 35q-18 59 -78 226q-8 22 -23 66l-90 -302q0 -8 12 -8q4 0 29 1q11 0 11 -8t-14 -8h-10h-105
q-12 0 -12 8z" />
    <glyph glyph-name="yturned" unicode="&#x28e;" horiz-adv-x="401" 
d="M-27 8q0 7 24 8t30.5 4t11.5 17l7 18l8 25q14 46 42 137q79 254 131 394q32 85 88 85q24 0 39.5 -14t15.5 -36q0 -19 -12.5 -31t-32.5 -12q-27 0 -39 22q-9 17 -15 17q-9 0 -28 -49q-28 -73 -44 -131q74 -194 126 -339q36 -99 40 -100q6 -5 32.5 -5t26.5 -10q0 -8 -13 -8
q-11 0 -34 1.5t-35 1.5h-18q-21 -1 -58 -2l-51 -1q-11 0 -11 8q0 7 37 8q31 1 31 10q0 8 -20 62q-8 23 -17 48l-17 50q-7 22 -37 100q-10 24 -22 58q-96 -301 -96 -316q0 -9 7.5 -11t42.5 -2q10 0 10 -8q0 -7 -12 -7q-5 0 -8 1q-34 2 -56 2h-28q-18 0 -23.5 -1t-13.5 -1
q-9 0 -9 7z" />
    <glyph glyph-name="kturned" unicode="&#x29e;" horiz-adv-x="469" 
d="M9 431q0 7 37 7q29 0 54 -1q51 -2 70 -2q13 0 39.5 2t39.5 2q9 0 9 -7q0 -8 -19 -8q-48 0 -48 -16q0 -14 168 -202l-1 204q-1 15 -28 14l-27 -1q-13 0 -13 8q0 9 22 9q-2 0 5 -1h24q24 -1 65 -1h78q24 0 24 -8q0 -5 -4.5 -6t-34.5 -2q-24 -1 -25 -11q-2 -7 -2 -52v-489
q0 -79 1 -82q2 -7 29 -7h10q7 1 16 1q11 0 11 -8t-23 -8q-48 -1 -100 -29q-12 -7 -16 -7q-11 0 -11 83v369q-162 -145 -162 -160q0 -6 39 -6h6q6 1 15 1h10q18 0 18 -8q0 -9 -31 -9h-41l-37 1h-62q-36 0 -42 1t-6 7q0 7 47 8q34 1 41 5q12 7 23 18l125 121
q-139 152 -197 223q-24 29 -38 35q-11 5 -49 4q-9 0 -9 8z" />
    <glyph glyph-name="zerowidthspace" unicode="&#x200b;" 
 />
    <glyph glyph-name="zerowidthnonjoiner" unicode="&#x200c;" 
 />
    <glyph glyph-name="zerowidthjoiner" unicode="&#x200d;" 
 />
    <glyph glyph-name="nonbreakinghyphen" unicode="&#x2011;" horiz-adv-x="305" 
d="M290 198h-275v52h275v-52z" />
    <glyph glyph-name="commaturnedmod" unicode="&#x2bb;" horiz-adv-x="262" 
d="M204 548q0 -25 -18.5 -42.5t-44.5 -17.5q-38 0 -62 26.5t-24 67.5q0 74 58 106q42 23 67 23q11 0 11 -8q0 -7 -12 -10q-82 -22 -82 -84q0 -26 14 -45q2 34 42 34q22 0 36.5 -14.5t14.5 -35.5z" />
    <glyph glyph-name="apostrophemod" unicode="&#x2bc;" horiz-adv-x="262" 
d="M207 611q0 -73 -58 -106q-40 -23 -67 -23q-11 0 -11 8q0 7 12 10q46 13 64 31t18 52q0 27 -13 46q0 -34 -43 -34q-22 0 -36.5 14.5t-14.5 35.5q0 25 18.5 42.5t45.5 17.5q37 0 61 -26.5t24 -67.5z" />
    <glyph glyph-name="secondtonechinese" unicode="&#x2ca;" horiz-adv-x="501" 
d="M286 510q0 -5 -6 -5q-10 0 -70 63l-91 95h17l29 1h53l41 -89q0 -1 11 -26l14 -33q2 -4 2 -6z" />
    <glyph glyph-name="fourthtonechinese" unicode="&#x2cb;" horiz-adv-x="501" 
d="M380 663l-91 -95q-60 -63 -70 -63q-6 0 -6 5q0 2 2 6q11 27 33 78l32 70h33h14q13 -1 35 -1h18z" />
    <glyph glyph-name="ringhalfright" unicode="&#x2be;" horiz-adv-x="501" 
d="M208 510q2 7 3 13q1 5 1.5 9.5t-1.5 5.5q23 0 38 16.5t15 42.5q0 25 -15.5 41t-39.5 16q1 9 1 15q0 5 0.5 10t-0.5 3q37 0 62.5 -25t25.5 -61q0 -37 -25.5 -61.5t-64.5 -24.5z" />
    <glyph glyph-name="ringhalfleft" unicode="&#x2bf;" horiz-adv-x="501" 
d="M298 510q-39 0 -64.5 24.5t-25.5 61.5q0 36 25.5 61t62.5 25v-13q0 -6 1 -15q-24 0 -39.5 -16t-15.5 -41q0 -26 15 -42.5t38 -16.5q-2 -2 0 -15q1 -6 3 -13z" />
    <glyph glyph-name="macronlowmod" unicode="&#x2cd;" horiz-adv-x="501" 
d="M369 -164h-237v49h237v-49z" />
    <glyph glyph-name="gravelowmod" unicode="&#x2ce;" horiz-adv-x="501" 
d="M286 -190q0 -5 -6 -5q-10 0 -70 63l-91 95h17l29 1h53l41 -89q0 -1 11 -26l14 -33q2 -4 2 -6z" />
    <glyph glyph-name="acutelowmod" unicode="&#x2cf;" horiz-adv-x="501" 
d="M380 -37l-91 -95q-60 -63 -70 -63q-6 0 -6 5q0 2 2 6q11 27 33 78l32 70h33h14q13 -1 35 -1h18z" />
    <glyph glyph-name="gravecmb" unicode="&#x300;" 
d="M-156 510q0 -5 -6 -5q-10 0 -70 63l-91 95h17l29 1h53l41 -89q0 -1 11 -26l14 -33q2 -4 2 -6z" />
    <glyph glyph-name="acutecmb" unicode="&#x301;" 
d="M-156 663l-91 -95q-60 -63 -70 -63q-6 0 -6 5q0 2 2 6q11 27 33 78l32 70h33h14q13 -1 35 -1h18z" />
    <glyph glyph-name="circumflexcmb" unicode="&#x302;" 
d="M-121 500h-66q-37 35 -73 111q-21 -43 -48.5 -78t-41.5 -35q-9 0 -9 7q0 4 6 8q46 46 85 130q16 35 25 35q8 0 27 -36q39 -75 95 -142z" />
    <glyph glyph-name="tildecmb" unicode="&#x303;" 
d="M-98 603q0 -25 -20.5 -57t-59.5 -32q-27 0 -89.5 33t-74.5 33q-7 0 -13.5 -7t-6.5 -14q0 -11 15 -27q5 -3 5 -8q0 -7 -10 -7t-20 12.5t-10 26.5q0 26 21.5 45.5t51.5 19.5q32 0 92 -30.5t74 -30.5q12 0 22 34q5 17 14 17t9 -8z" />
    <glyph glyph-name="macroncmb" unicode="&#x304;" 
d="M-121 536h-237v49h237v-49z" />
    <glyph glyph-name="brevecmb" unicode="&#x306;" 
d="M-129 627q0 -47 -33 -80.5t-79 -33.5q-49 0 -79.5 31t-30.5 80q0 12 9 12q4 0 6 -8q16 -64 96 -64t95 59q3 13 10 13q6 0 6 -9z" />
    <glyph glyph-name="dotaccentcmb" unicode="&#x307;" 
d="M-189 558q0 -20 -14 -34t-35 -14q-22 0 -37 14.5t-15 35.5t15.5 36t37.5 15q20 0 34 -15.5t14 -37.5z" />
    <glyph glyph-name="dieresiscmb" unicode="&#x308;" 
d="M-105 558q0 -19 -13.5 -32t-33.5 -13q-21 0 -35 13.5t-14 33.5t14.5 34.5t35.5 14.5q20 0 33 -14.5t13 -36.5zM-277 559q0 -19 -14.5 -33t-34.5 -14t-34 14t-14 34q0 21 14 35t35 14q19 0 33.5 -15t14.5 -35z" />
    <glyph glyph-name="ringcmb" unicode="&#x30a;" 
d="M-152 596q0 -37 -25.5 -61.5t-64.5 -24.5q-35 0 -60.5 25t-25.5 60q0 37 25.5 62t62.5 25t62.5 -25t25.5 -61zM-186 597q0 25 -15.5 41t-39.5 16q-22 0 -37 -17t-15 -42q0 -24 15.5 -40.5t38.5 -16.5t38 16.5t15 42.5z" />
    <glyph glyph-name="hungarumlautcmb" unicode="&#x30b;" 
d="M-63 663l-97 -95q-64 -63 -70 -63t-6 5l2 6l8 14q1 1 9 19q5 8 13 26l10 19l38 70h26h15q12 -1 32 -1h20zM-244 663l-96 -95l-28 -28q-35 -35 -42 -35q-6 0 -6 5q0 3 2.5 7t7.5 13l9 19q4 7 24 45l36 70h27h15q12 -1 32 -1h19z" />
    <glyph glyph-name="caroncmb" unicode="&#x30c;" 
d="M-121 671q0 -2 -6 -8q-45 -44 -85 -130q-16 -35 -25 -35q-8 0 -27 36q-43 80 -94 142h65q41 -41 73 -111q20 43 48 78t42 35q9 0 9 -7z" />
    <glyph glyph-name="dblgravecmb" unicode="&#x30f;" 
d="M-396 663q20 0 32 1h15h26l38 -70l10 -19q8 -18 13 -26q8 -18 9 -19l8 -14l2 -6q0 -5 -6 -5t-70 63l-97 95h20zM-216 663q20 0 32 1h15h27l36 -70q20 -38 24 -45l9 -19q5 -9 7.5 -13t2.5 -7q0 -5 -6 -5q-7 0 -42 35l-28 28l-96 95h19z" />
    <glyph glyph-name="breveinvertedcmb" unicode="&#x311;" 
d="M-351 522q0 47 33 80.5t79 33.5q49 0 79.5 -31t30.5 -80q0 -12 -9 -12q-4 0 -6 8q-16 64 -96 64t-95 -59q-3 -13 -10 -13q-6 0 -6 9z" />
    <glyph glyph-name="commaturnedabovecmb" unicode="&#x312;" 
d="M-165 548q0 -25 -18.5 -42.5t-44.5 -17.5q-38 0 -62 26.5t-24 67.5q0 74 58 106q42 23 67 23q11 0 11 -8q0 -7 -12 -10q-82 -22 -82 -84q0 -26 14 -45q2 34 42 34q22 0 36.5 -14.5t14.5 -35.5z" />
    <glyph glyph-name="commaabovecmb" unicode="&#x313;" 
d="M-165 611q0 -73 -58 -106q-40 -23 -67 -23q-11 0 -11 8q0 7 12 10q46 13 64 31t18 52q0 27 -13 46q0 -34 -43 -34q-22 0 -36.5 14.5t-14.5 35.5q0 25 18.5 42.5t45.5 17.5q37 0 61 -26.5t24 -67.5z" />
    <glyph glyph-name="gravebelowcmb" unicode="&#x316;" 
d="M-156 -190q0 -5 -6 -5q-10 0 -70 63l-91 95h17l29 1h53l41 -89q0 -1 11 -26l14 -33q2 -4 2 -6z" />
    <glyph glyph-name="acutebelowcmb" unicode="&#x317;" 
d="M-156 -37l-91 -95q-60 -63 -70 -63q-6 0 -6 5q0 2 2 6q11 27 33 78l32 70h33h14q13 -1 35 -1h18z" />
    <glyph glyph-name="ringhalfleftbelowcmb" unicode="&#x31c;" 
d="M-195 -190q-39 0 -64.5 24.5t-25.5 61.5q0 36 25.5 61t62.5 25v-13q0 -6 1 -15q-24 0 -39.5 -16t-15.5 -41q0 -26 15 -42.5t38 -16.5q-2 -1 -1.5 -5.5t1.5 -9.5q1 -6 3 -13z" />
    <glyph glyph-name="dotbelowcmb" unicode="&#x323;" 
d="M-189 -142q0 -20 -14 -34t-35 -14q-22 0 -37 14.5t-15 35.5t15.5 36t37.5 15q20 0 34 -15.5t14 -37.5z" />
    <glyph glyph-name="dieresisbelowcmb" unicode="&#x324;" 
d="M-105 -142q0 -19 -13.5 -32t-33.5 -13q-21 0 -35 13.5t-14 33.5t14.5 34.5t35.5 14.5q20 0 33 -14.5t13 -36.5zM-277 -141q0 -19 -14.5 -33t-34.5 -14t-34 14t-14 34q0 21 14 35t35 14q19 0 33.5 -15t14.5 -35z" />
    <glyph glyph-name="ringbelowcmb" unicode="&#x325;" 
d="M-152 -104q0 -37 -25.5 -61.5t-64.5 -24.5q-35 0 -60.5 25t-25.5 60q0 37 25.5 62t62.5 25t62.5 -25t25.5 -61zM-186 -103q0 25 -15.5 41t-39.5 16q-22 0 -37 -17t-15 -42q0 -24 15.5 -40.5t38.5 -16.5t38 16.5t15 42.5z" />
    <glyph glyph-name="commaaccent" unicode="&#x326;" 
d="M-132 -71q0 -59 -46 -85q-32 -18 -54 -18q-9 0 -9 6t10 8q37 10 51 24.5t14 41.5q0 22 -10 37q0 -27 -34 -27q-18 0 -29.5 11.5t-11.5 28.5q0 20 14.5 34t36.5 14q30 0 49 -21t19 -54z" />
    <glyph glyph-name="cedillacmb" unicode="&#x327;" 
d="M-155 -106q0 -34 -27.5 -58t-67.5 -24q-22 0 -48 12.5t-26 23.5q0 6 7 6q4 0 15 -8q13 -11 33 -11t35.5 22t15.5 51q0 48 -37 48q-9 0 -14 -1v49h21v-35q40 0 66.5 -21.5t26.5 -53.5z" />
    <glyph glyph-name="ogonekcmb" unicode="&#x328;" 
d="M-152 -148q0 -6 -20 -20q-31 -21 -64 -21q-38 0 -64.5 23.5t-26.5 57.5q0 61 100 112h14q-51 -50 -51 -96q0 -31 16 -51t41 -20q20 0 36 13q8 7 13 7q6 0 6 -5z" />
    <glyph glyph-name="caronbelowcmb" unicode="&#x32c;" 
d="M-121 -29q0 -2 -6 -8q-45 -44 -85 -130q-16 -35 -25 -35q-8 0 -27 36q-43 80 -94 142h65q41 -41 73 -111q20 43 48 78t42 35q9 0 9 -7z" />
    <glyph glyph-name="circumflexbelowcmb" unicode="&#x32d;" 
d="M-121 -200h-66q-37 35 -73 111q-21 -43 -48.5 -78t-41.5 -35q-9 0 -9 7q0 4 6 8q46 46 85 130q16 35 25 35q8 0 27 -36q39 -75 95 -142z" />
    <glyph glyph-name="brevebelowcmb" unicode="&#x32e;" 
d="M-129 -73q0 -47 -33 -80.5t-79 -33.5q-49 0 -79.5 31t-30.5 80q0 12 9 12q4 0 6 -8q16 -64 96 -64t95 59q3 13 10 13q6 0 6 -9z" />
    <glyph glyph-name="breveinvertedbelowcmb" unicode="&#x32f;" 
d="M-351 -178q0 47 33 80.5t79 33.5q49 0 79.5 -31t30.5 -80q0 -12 -9 -12q-4 0 -6 8q-16 64 -96 64t-95 -59q-3 -13 -10 -13q-6 0 -6 9z" />
    <glyph glyph-name="tildebelowcmb" unicode="&#x330;" 
d="M-98 -97q0 -25 -20.5 -57t-59.5 -32q-27 0 -89.5 33t-74.5 33q-7 0 -13.5 -7t-6.5 -14q0 -11 15 -27q5 -3 5 -8q0 -7 -10 -7t-20 12.5t-10 26.5q0 26 21.5 45.5t51.5 19.5q32 0 92 -30.5t74 -30.5q12 0 22 34q5 17 14 17t9 -8z" />
    <glyph glyph-name="macronbelowcmb" unicode="&#x331;" 
d="M-121 -164h-237v49h237v-49z" />
    <glyph glyph-name="soliduslongoverlaycmb" unicode="&#x338;" 
d="M-9 726l-413 -756h-49l413 756h49z" />
    <glyph glyph-name="ringhalfrightbelowcmb" unicode="&#x339;" 
d="M-285 -190q2 7 3 13q2 13 0 15q23 0 38 16.5t15 42.5q0 25 -15.5 41t-39.5 16q1 9 1 15v13q37 0 62.5 -25t25.5 -61q0 -37 -25.5 -61.5t-64.5 -24.5z" />
    <glyph glyph-name="uni0351" unicode="&#x351;" 
d="M-195 510q-39 0 -64.5 24.5t-25.5 61.5q0 36 25.5 61t62.5 25q-1 2 -0.5 -3t0.5 -10q0 -6 1 -15q-24 0 -39.5 -16t-15.5 -41q0 -26 15 -42.5t38 -16.5q-2 -1 -1.5 -5.5t1.5 -9.5q1 -6 3 -13z" />
    <glyph glyph-name="uni0357" unicode="&#x357;" 
d="M-285 510q2 7 3 13q2 13 0 15q23 0 38 16.5t15 42.5q0 25 -15.5 41t-39.5 16q1 9 1 15v13q37 0 62.5 -25t25.5 -61q0 -37 -25.5 -61.5t-64.5 -24.5z" />
    <glyph glyph-name="Deltagreek" unicode="&#x394;" horiz-adv-x="612" 
d="M595 0h-574l276 672h22zM471 32l-198 491l-201 -491h399z" />
    <glyph glyph-name="Omegagreek" unicode="&#x3a9;" horiz-adv-x="768" 
d="M718 408q0 -108 -72 -177q-65 -61 -176 -82v-59h123q50 0 67 17.5t21 68.5h23l-10 -176h-252v170q80 16 122 88q36 63 36 150q0 103 -56 170q-59 71 -160 71q-102 0 -161 -71q-55 -66 -55 -170q0 -88 36 -150q41 -72 122 -88v-170h-252l-10 176h23q3 -50 21 -68t67 -18
h123v59q-112 21 -176 82q-72 69 -72 177q0 131 105 204q91 63 229 63t229 -63q105 -73 105 -204z" />
    <glyph glyph-name="mugreek" unicode="&#x3bc;" horiz-adv-x="490" 
d="M500 34q0 -7 -22 -8q-78 -5 -137 -34q-4 -2 -7 -2q-6 0 -6 8l1 56q-46 -66 -127 -66q-57 0 -84 38q3 -22 7 -67q1 -14 6 -52l8 -51q2 -13 2 -25q0 -23 -17 -50.5t-31 -27.5q-16 0 -32 27.5t-16 53.5q0 6 11 82q20 138 20 229v229q0 35 -4 41t-27 7l-13 -1q-27 -2 -27 8
q0 7 17 7q18 0 52 -2q17 -1 20 -1q35 0 65 3v-279q0 -77 10 -102q16 -39 65 -39q53 0 78 44q18 32 18 102v155q0 34 -1 51l-2 33q-1 15 -6.5 17.5t-22.5 2.5q-42 -1 -42 9q0 6 21 6h9q8 -1 53 -1q60 0 74 1v-279q0 -72 3 -91t15.5 -22t56.5 -3q12 0 12 -7z" />
    <glyph glyph-name="ohminverted" unicode="&#x2127;" horiz-adv-x="768" 
d="M50 267q0 108 72 177q65 61 176 82v59h-123q-50 0 -67 -17.5t-21 -68.5h-23l10 176h252v-170q-80 -16 -122 -88q-36 -63 -36 -150q0 -103 56 -170q59 -71 160 -71q102 0 161 71q55 66 55 170q0 88 -36 150q-41 72 -122 88v170h252l10 -176h-23q-3 50 -21 68t-67 18h-123
v-59q112 -21 176 -82q72 -69 72 -177q0 -131 -105 -204q-91 -63 -229 -63t-229 63q-105 73 -105 204z" />
    <glyph glyph-name="dcroat" unicode="&#x111;" horiz-adv-x="476" 
d="M470 538h-58v-249q0 -237 5 -254q2 -7 47 -7q14 0 14 -8q0 -7 -14 -7h-5q-8 0 -17 1h-8q-49 0 -83 -20q-14 -8 -17 -8q-9 0 -9 12l1 31q-43 -41 -102 -41q-84 0 -138.5 64.5t-54.5 164.5q0 103 54.5 167t142.5 64q68 0 102 -49v139h-135v52h134q-1 45 -6 59q-6 15 -18 14
q-29 -3 -35 -3q-13 0 -13 9t11 9l36 -1q30 -1 92 28q4 2 7 2q10 0 10 -24v-21q-1 -16 -1 -28v-44h58v-52zM330 271q0 96 -21 123q-27 34 -69 34q-54 0 -86 -56t-32 -150q0 -90 28 -154q12 -27 35.5 -44.5t48.5 -17.5q31 0 56 18.5t32.5 44.5t7.5 202z" />
    <glyph glyph-name="Euro" unicode="&#x20ac;" horiz-adv-x="626" 
d="M444 367h-220v-20q0 -22 1 -42h169v-36h-167q11 -112 53 -181q49 -80 130 -80q41 0 75.5 25.5t52.5 69.5q21 51 30 111q3 24 10 24q8 0 8 -15q0 2 -1 -27q-3 -58 -3 -112q0 -6 1.5 -24.5t1.5 -44.5v-9q0 -13 -7 -13q-6 0 -11 15q-11 33 -22 43q-58 -63 -139 -63
q-117 0 -195 102q-56 75 -72 179h-110v36h106q-1 21 -1 44v18h-105v36h107q10 121 69 202q71 100 183 100q41 0 65.5 -8.5t60.5 -34.5q17 -13 26 -13q7 0 14 16q10 28 16 28q7 0 7 -8q0 -4 -2 -13q-9 -48 -9 -180q0 -19 -2 -22t-6 -3q-8 0 -11 19q-10 80 -29 119
q-40 80 -124 80q-64 0 -102 -54q-58 -82 -67 -228h219v-36z" />
    <glyph glyph-name="centigrade" unicode="&#x2103;" horiz-adv-x="1095" 
d="M390 583q0 -51 -36 -85.5t-90 -34.5q-49 0 -84.5 35.5t-35.5 84.5q0 52 35.5 87t87.5 35t87.5 -35t35.5 -87zM345 585q0 35 -22.5 58.5t-56.5 23.5q-31 0 -53 -24.5t-22 -59.5t22.5 -58.5t55.5 -23.5t54.5 23.5t21.5 60.5zM1041 223q0 2 -2 -27q-4 -58 -4 -112
q0 -6 2 -24.5t2 -44.5v-9q0 -13 -8 -13t-14 15q-14 33 -28 43q-72 -63 -173 -63q-147 0 -243.5 102.5t-96.5 258.5q0 157 88.5 256.5t228.5 99.5q51 0 81.5 -8.5t75.5 -34.5q22 -13 33 -13q9 0 17 16q13 28 21 28t8 -8q0 -4 -2 -13q-11 -48 -11 -180q0 -19 -3 -22t-8 -3
q-10 0 -13 19q-13 80 -37 119q-49 80 -154 80q-81 0 -128 -54q-85 -97 -85 -284q0 -167 70 -259q61 -80 162 -80q52 0 95 25.5t66 69.5q26 51 37 111q4 24 13 24q10 0 10 -15z" />
    <glyph glyph-name="fahrenheit" unicode="&#x2109;" horiz-adv-x="985" 
d="M390 583q0 -51 -36 -85.5t-90 -34.5q-49 0 -84.5 35.5t-35.5 84.5q0 52 35.5 87t87.5 35t87.5 -35t35.5 -87zM345 585q0 35 -22.5 58.5t-56.5 23.5q-31 0 -53 -24.5t-22 -59.5t22.5 -58.5t55.5 -23.5t54.5 23.5t21.5 60.5zM976 528q0 -14 -10 -14t-14 25q-12 72 -49 105
q-24 21 -74 26q-18 2 -80 2q-46 0 -110 -3v-292q128 -1 158 16.5t36 98.5q2 23 12 23t10 -15q0 -9 -1 -15q-3 -69 -3 -128q0 -76 4 -120q1 -4 1 -12q0 -12 -10 -12q-8 0 -10 6t-7 46q-8 61 -31.5 76t-93.5 15q-37 0 -65 -2l1 -102l-2 -196q0 -29 23 -37q11 -4 49 -3
q16 0 16 -8q0 -9 -20 -9h-10q-14 0 -38 1h-31l-149 -1q-19 0 -19 8t34.5 10t40.5 9.5t6 46.5l-1 574q-1 18 -10.5 22.5t-51.5 5.5q-16 0 -16 11q0 10 18 10h16q-2 0 96.5 -1t161.5 -1q169 0 207 8q1 -13 6 -75q3 -42 8 -75q2 -14 2 -24z" />
    <glyph glyph-name="kelvin" unicode="&#x212a;" horiz-adv-x="666" 
d="M694 8q0 -9 -14 -9h-8l-120 1l-117 -1q-6 -1 -13 -1q-19 0 -19 8t25 10q52 5 52 17q0 13 -273 325v-289q0 -35 11 -43.5t59 -8.5q11 0 11 -10q0 -9 -14 -9q-10 0 -18 1l-139 2q-13 0 -30.5 -1.5t-35.5 -1.5h-9q-15 0 -15 9q0 10 37 11q34 1 40 15q3 5 3 63l-1 557
q-1 21 -54 21q-24 0 -24 11q0 9 17 9q5 0 13 -1q16 -2 89 -2q78 0 99 2q11 1 23 1q18 0 18 -11q0 -6 -5.5 -7.5t-34.5 -2.5t-34.5 -8t-5.5 -45v-244l85 85q193 193 193 201q0 13 -47 12q-30 -1 -30 10q0 7 14 8t97 1h55q35 0 40 -1q10 -2 10 -10q0 -11 -22 -11q-46 1 -59 -2
t-26 -16q-65 -68 -198 -204l-26 -26l-13 -14q6 -7 50 -54q84 -87 241 -279q33 -40 45.5 -48t48.5 -10q29 -2 29 -10z" />
    <glyph glyph-name="angstrom" unicode="&#x212b;" horiz-adv-x="602" 
d="M395 850q0 -37 -25.5 -61.5t-64.5 -24.5q-35 0 -60.5 25t-25.5 60q0 37 25.5 62t62.5 25t62.5 -25t25.5 -61zM647 7q0 -9 -15 -9q-10 0 -18 1l-127 2l-127 -2q-7 -1 -15 -1q-20 0 -20 10q0 11 27 11q88 1 88 18q0 1 -2 8l-8 27l-5 14q-9 31 -44 137h-214
q-60 -160 -60 -184q0 -14 12 -17q3 -1 50 -4q29 -1 29 -10q0 -10 -26 -10q-46 0 -107 4q-15 1 -31 1t-31 -2q-8 -1 -13 -1q-14 0 -14 9t31.5 10t45.5 9.5t22 32.5q129 368 210 591q2 12 8 27l5 18q3 11 8 11q3 0 5 -6q13 -39 59 -163q36 -97 179 -487q8 -22 20.5 -28
t51.5 -7q26 -1 26 -10zM361 851q0 25 -15.5 41t-39.5 16q-22 0 -37 -17t-15 -42q0 -24 15.5 -40.5t38.5 -16.5t38 16.5t15 42.5zM375 246q-16 45 -53 149l-48 137q-42 -110 -101 -286h202z" />
    <glyph glyph-name="Oneroman" unicode="&#x2160;" horiz-adv-x="314" 
d="M288 8q0 -8 -12 -8h-10q-6 3 -136 3q-25 0 -50 -2q-13 -1 -40 -1q-13 0 -13 9q0 8 26 9q40 1 47 9.5t7 57.5v526q0 49 -5 55q-6 10 -55 12q-19 1 -19 8q0 9 12 9l135 -2q15 0 58 1l38 1q16 0 16 -9q0 -8 -44 -10q-25 -1 -30.5 -9t-5.5 -42v-534q0 -57 5 -62
q11 -11 65 -13q11 0 11 -8z" />
    <glyph glyph-name="Tworoman" unicode="&#x2161;" horiz-adv-x="628" 
d="M288 8q0 -8 -12 -8h-10q-6 3 -136 3q-25 0 -50 -2q-13 -1 -40 -1q-13 0 -13 9q0 8 26 9q40 1 47 9.5t7 57.5v526q0 49 -5 55q-6 10 -55 12q-19 1 -19 8q0 9 12 9l135 -2q15 0 58 1l38 1q16 0 16 -9q0 -8 -44 -10q-25 -1 -30.5 -9t-5.5 -42v-534q0 -57 5 -62
q11 -11 65 -13q11 0 11 -8zM602 8q0 -8 -12 -8h-10q-6 3 -136 3q-25 0 -50 -2q-13 -1 -40 -1q-13 0 -13 9q0 8 26 9q40 1 47 9.5t7 57.5v526q0 49 -5 55q-6 10 -55 12q-19 1 -19 8q0 9 12 9l135 -2q15 0 58 1l38 1q16 0 16 -9q0 -8 -44 -10q-25 -1 -30.5 -9t-5.5 -42v-534
q0 -57 5 -62q11 -11 65 -13q11 0 11 -8z" />
    <glyph glyph-name="Threeroman" unicode="&#x2162;" horiz-adv-x="942" 
d="M288 8q0 -8 -12 -8h-10q-6 3 -136 3q-25 0 -50 -2q-13 -1 -40 -1q-13 0 -13 9q0 8 26 9q40 1 47 9.5t7 57.5v526q0 49 -5 55q-6 10 -55 12q-19 1 -19 8q0 9 12 9l135 -2q15 0 58 1l38 1q16 0 16 -9q0 -8 -44 -10q-25 -1 -30.5 -9t-5.5 -42v-534q0 -57 5 -62
q11 -11 65 -13q11 0 11 -8zM602 8q0 -8 -12 -8h-10q-6 3 -136 3q-25 0 -50 -2q-13 -1 -40 -1q-13 0 -13 9q0 8 26 9q40 1 47 9.5t7 57.5v526q0 49 -5 55q-6 10 -55 12q-19 1 -19 8q0 9 12 9l135 -2q15 0 58 1l38 1q16 0 16 -9q0 -8 -44 -10q-25 -1 -30.5 -9t-5.5 -42v-534
q0 -57 5 -62q11 -11 65 -13q11 0 11 -8zM916 8q0 -8 -12 -8h-10q-6 3 -136 3q-25 0 -50 -2q-13 -1 -40 -1q-13 0 -13 9q0 8 26 9q40 1 47 9.5t7 57.5v526q0 49 -5 55q-6 10 -55 12q-19 1 -19 8q0 9 12 9l135 -2q15 0 58 1l38 1q16 0 16 -9q0 -8 -44 -10q-25 -1 -30.5 -9
t-5.5 -42v-534q0 -57 5 -62q11 -11 65 -13q11 0 11 -8z" />
    <glyph glyph-name="Fourroman" unicode="&#x2163;" horiz-adv-x="947" 
d="M288 8q0 -8 -12 -8h-10q-6 3 -136 3q-25 0 -50 -2q-13 -1 -40 -1q-13 0 -13 9q0 8 26 9q40 1 47 9.5t7 57.5v526q0 49 -5 55q-6 10 -55 12q-19 1 -19 8q0 9 12 9l135 -2q15 0 58 1l38 1q16 0 16 -9q0 -8 -44 -10q-25 -1 -30.5 -9t-5.5 -42v-534q0 -57 5 -62
q11 -11 65 -13q11 0 11 -8zM968 687q0 -8 -19 -9q-44 -1 -59 -13t-31 -56l-34 -93q-123 -337 -173 -517q-3 -12 -10 -12q-8 0 -33 75q-45 137 -70 206q-27 76 -80 227l-48 135q-10 28 -22 37.5t-40 10.5q-33 1 -39.5 2t-6.5 8q0 9 20 9h9q18 0 62.5 -1.5t63.5 -1.5
q5 0 38.5 1.5t95.5 1.5h14q18 0 18 -10q0 -11 -36 -12l-61 -2q-21 -1 -21 -13q0 -2 2 -8l8 -26q2 -8 97 -282q16 -47 61 -179q165 467 165 491t-49 22l-31 -1q-12 0 -12 8q0 10 30 10h34q28 -1 41 -1h32l66 1q18 0 18 -8z" />
    <glyph glyph-name="Fiveroman" unicode="&#x2164;" horiz-adv-x="633" 
d="M654 687q0 -8 -19 -9q-44 -1 -59 -13t-31 -56l-34 -93q-123 -337 -173 -517q-3 -12 -10 -12q-8 0 -33 75q-45 137 -70 206q-27 76 -80 227l-48 135q-10 28 -22 37.5t-40 10.5q-33 1 -39.5 2t-6.5 8q0 9 20 9h9q18 0 62.5 -1.5t63.5 -1.5q5 0 38.5 1.5t95.5 1.5h14
q18 0 18 -10q0 -11 -36 -12l-61 -2q-21 -1 -21 -13q0 -2 2 -8l8 -26q2 -8 97 -282q16 -47 61 -179q165 467 165 491t-49 22l-31 -1q-12 0 -12 8q0 10 30 10h34q28 -1 41 -1h32l66 1q18 0 18 -8z" />
    <glyph glyph-name="Sixroman" unicode="&#x2165;" horiz-adv-x="947" 
d="M654 687q0 -8 -19 -9q-44 -1 -59 -13t-31 -56l-34 -93q-123 -337 -173 -517q-3 -12 -10 -12q-8 0 -33 75q-45 137 -70 206q-27 76 -80 227l-48 135q-10 28 -22 37.5t-40 10.5q-33 1 -39.5 2t-6.5 8q0 9 20 9h9q18 0 62.5 -1.5t63.5 -1.5q5 0 38.5 1.5t95.5 1.5h14
q18 0 18 -10q0 -11 -36 -12l-61 -2q-21 -1 -21 -13q0 -2 2 -8l8 -26q2 -8 97 -282q16 -47 61 -179q165 467 165 491t-49 22l-31 -1q-12 0 -12 8q0 10 30 10h34q28 -1 41 -1h32l66 1q18 0 18 -8zM921 8q0 -8 -12 -8h-10q-6 3 -136 3q-25 0 -50 -2q-13 -1 -40 -1q-13 0 -13 9
q0 8 26 9q40 1 47 9.5t7 57.5v526q0 49 -5 55q-6 10 -55 12q-19 1 -19 8q0 9 12 9l135 -2q15 0 58 1l38 1q16 0 16 -9q0 -8 -44 -10q-25 -1 -30.5 -9t-5.5 -42v-534q0 -57 5 -62q11 -11 65 -13q11 0 11 -8z" />
    <glyph glyph-name="Sevenroman" unicode="&#x2166;" horiz-adv-x="1261" 
d="M654 687q0 -8 -19 -9q-44 -1 -59 -13t-31 -56l-34 -93q-123 -337 -173 -517q-3 -12 -10 -12q-8 0 -33 75q-45 137 -70 206q-27 76 -80 227l-48 135q-10 28 -22 37.5t-40 10.5q-33 1 -39.5 2t-6.5 8q0 9 20 9h9q18 0 62.5 -1.5t63.5 -1.5q5 0 38.5 1.5t95.5 1.5h14
q18 0 18 -10q0 -11 -36 -12l-61 -2q-21 -1 -21 -13q0 -2 2 -8l8 -26q2 -8 97 -282q16 -47 61 -179q165 467 165 491t-49 22l-31 -1q-12 0 -12 8q0 10 30 10h34q28 -1 41 -1h32l66 1q18 0 18 -8zM921 8q0 -8 -12 -8h-10q-6 3 -136 3q-25 0 -50 -2q-13 -1 -40 -1q-13 0 -13 9
q0 8 26 9q40 1 47 9.5t7 57.5v526q0 49 -5 55q-6 10 -55 12q-19 1 -19 8q0 9 12 9l135 -2q15 0 58 1l38 1q16 0 16 -9q0 -8 -44 -10q-25 -1 -30.5 -9t-5.5 -42v-534q0 -57 5 -62q11 -11 65 -13q11 0 11 -8zM1235 8q0 -8 -12 -8h-10q-6 3 -136 3q-25 0 -50 -2q-13 -1 -40 -1
q-13 0 -13 9q0 8 26 9q40 1 47 9.5t7 57.5v526q0 49 -5 55q-6 10 -55 12q-19 1 -19 8q0 9 12 9l135 -2q15 0 58 1l38 1q16 0 16 -9q0 -8 -44 -10q-25 -1 -30.5 -9t-5.5 -42v-534q0 -57 5 -62q11 -11 65 -13q11 0 11 -8z" />
    <glyph glyph-name="Eightroman" unicode="&#x2167;" horiz-adv-x="1575" 
d="M654 687q0 -8 -19 -9q-44 -1 -59 -13t-31 -56l-34 -93q-123 -337 -173 -517q-3 -12 -10 -12q-8 0 -33 75q-45 137 -70 206q-27 76 -80 227l-48 135q-10 28 -22 37.5t-40 10.5q-33 1 -39.5 2t-6.5 8q0 9 20 9h9q18 0 62.5 -1.5t63.5 -1.5q5 0 38.5 1.5t95.5 1.5h14
q18 0 18 -10q0 -11 -36 -12l-61 -2q-21 -1 -21 -13q0 -2 2 -8l8 -26q2 -8 97 -282q16 -47 61 -179q165 467 165 491t-49 22l-31 -1q-12 0 -12 8q0 10 30 10h34q28 -1 41 -1h32l66 1q18 0 18 -8zM921 8q0 -8 -12 -8h-10q-6 3 -136 3q-25 0 -50 -2q-13 -1 -40 -1q-13 0 -13 9
q0 8 26 9q40 1 47 9.5t7 57.5v526q0 49 -5 55q-6 10 -55 12q-19 1 -19 8q0 9 12 9l135 -2q15 0 58 1l38 1q16 0 16 -9q0 -8 -44 -10q-25 -1 -30.5 -9t-5.5 -42v-534q0 -57 5 -62q11 -11 65 -13q11 0 11 -8zM1235 8q0 -8 -12 -8h-10q-6 3 -136 3q-25 0 -50 -2q-13 -1 -40 -1
q-13 0 -13 9q0 8 26 9q40 1 47 9.5t7 57.5v526q0 49 -5 55q-6 10 -55 12q-19 1 -19 8q0 9 12 9l135 -2q15 0 58 1l38 1q16 0 16 -9q0 -8 -44 -10q-25 -1 -30.5 -9t-5.5 -42v-534q0 -57 5 -62q11 -11 65 -13q11 0 11 -8zM1549 8q0 -8 -12 -8h-10q-6 3 -136 3q-25 0 -50 -2
q-13 -1 -40 -1q-13 0 -13 9q0 8 26 9q40 1 47 9.5t7 57.5v526q0 49 -5 55q-6 10 -55 12q-19 1 -19 8q0 9 12 9l135 -2q15 0 58 1l38 1q16 0 16 -9q0 -8 -44 -10q-25 -1 -30.5 -9t-5.5 -42v-534q0 -57 5 -62q11 -11 65 -13q11 0 11 -8z" />
    <glyph glyph-name="Nineroman" unicode="&#x2168;" horiz-adv-x="939" 
d="M288 8q0 -8 -12 -8h-10q-6 3 -136 3q-25 0 -50 -2q-13 -1 -40 -1q-13 0 -13 9q0 8 26 9q40 1 47 9.5t7 57.5v526q0 49 -5 55q-6 10 -55 12q-19 1 -19 8q0 9 12 9l135 -2q15 0 58 1l38 1q16 0 16 -9q0 -8 -44 -10q-25 -1 -30.5 -9t-5.5 -42v-534q0 -57 5 -62
q11 -11 65 -13q11 0 11 -8zM958 9q0 -9 -28 -9q-34 0 -69.5 1t-69.5 1q-44 0 -102 -2q-29 -1 -43 -1q-29 0 -29 11q0 10 23 9l45 -1q24 -1 29 1q15 3 15 19q0 15 -25 65l-107 216l-126 -213q-33 -56 -33 -66q0 -18 33 -21q-2 0 45 0q18 0 18 -10q0 -9 -15 -9l-113 1l-85 -1
q-16 0 -16 9t26 12l36 4q15 4 25 13q19 17 123 196q38 66 68 115l-114 214q-35 66 -48.5 85.5t-28.5 25.5q-16 3 -63 3q-12 0 -12 8q0 11 16 11q22 0 91 -2q34 -1 47 -1q117 0 129 2h14q21 0 21 -8q0 -11 -36 -11q-67 1 -67 -16q0 -18 114 -234q41 60 90 142.5t49 92.5
q0 15 -55 15q-27 0 -27 9q0 10 19 10q13 0 38 -1t38 -1q5 0 46.5 1.5t48.5 1.5h9q17 0 17 -9t-13 -9q-2 0 -32 -1q-34 -1 -46.5 -12t-42.5 -64q-39 -70 -114 -185l-11 -17q7 -13 135 -263q44 -86 63 -102.5t75 -15.5q25 0 25 -9z" />
    <glyph glyph-name="Tenroman" unicode="&#x2169;" horiz-adv-x="625" 
d="M644 9q0 -9 -28 -9q-34 0 -69.5 1t-69.5 1q-44 0 -102 -2q-29 -1 -43 -1q-29 0 -29 11q0 10 23 9l45 -1q24 -1 29 1q15 3 15 19q0 15 -25 65l-107 216l-126 -213q-33 -56 -33 -66q0 -18 33 -21q-2 0 45 0q18 0 18 -10q0 -9 -15 -9l-113 1l-85 -1q-16 0 -16 9t26 12l36 4
q15 4 25 13q19 17 123 196q38 66 68 115l-114 214q-35 66 -48.5 85.5t-28.5 25.5q-16 3 -63 3q-12 0 -12 8q0 11 16 11q22 0 91 -2q34 -1 47 -1q117 0 129 2h14q21 0 21 -8q0 -11 -36 -11q-67 1 -67 -16q0 -18 114 -234q41 60 90 142.5t49 92.5q0 15 -55 15q-27 0 -27 9
q0 10 19 10q13 0 38 -1t38 -1q5 0 46.5 1.5t48.5 1.5h9q17 0 17 -9t-13 -9q-2 0 -32 -1q-34 -1 -46.5 -12t-42.5 -64q-39 -70 -114 -185l-11 -17q7 -13 135 -263q44 -86 63 -102.5t75 -15.5q25 0 25 -9z" />
    <glyph glyph-name="Elevenroman" unicode="&#x216a;" horiz-adv-x="939" 
d="M644 9q0 -9 -28 -9q-34 0 -69.5 1t-69.5 1q-44 0 -102 -2q-29 -1 -43 -1q-29 0 -29 11q0 10 23 9l45 -1q24 -1 29 1q15 3 15 19q0 15 -25 65l-107 216l-126 -213q-33 -56 -33 -66q0 -18 33 -21q-2 0 45 0q18 0 18 -10q0 -9 -15 -9l-113 1l-85 -1q-16 0 -16 9t26 12l36 4
q15 4 25 13q19 17 123 196q38 66 68 115l-114 214q-35 66 -48.5 85.5t-28.5 25.5q-16 3 -63 3q-12 0 -12 8q0 11 16 11q22 0 91 -2q34 -1 47 -1q117 0 129 2h14q21 0 21 -8q0 -11 -36 -11q-67 1 -67 -16q0 -18 114 -234q41 60 90 142.5t49 92.5q0 15 -55 15q-27 0 -27 9
q0 10 19 10q13 0 38 -1t38 -1q5 0 46.5 1.5t48.5 1.5h9q17 0 17 -9t-13 -9q-2 0 -32 -1q-34 -1 -46.5 -12t-42.5 -64q-39 -70 -114 -185l-11 -17q7 -13 135 -263q44 -86 63 -102.5t75 -15.5q25 0 25 -9zM913 8q0 -8 -12 -8h-10q-6 3 -136 3q-25 0 -50 -2q-13 -1 -40 -1
q-13 0 -13 9q0 8 26 9q40 1 47 9.5t7 57.5v526q0 49 -5 55q-6 10 -55 12q-19 1 -19 8q0 9 12 9l135 -2q15 0 58 1l38 1q16 0 16 -9q0 -8 -44 -10q-25 -1 -30.5 -9t-5.5 -42v-534q0 -57 5 -62q11 -11 65 -13q11 0 11 -8z" />
    <glyph glyph-name="Twelveroman" unicode="&#x216b;" horiz-adv-x="1253" 
d="M644 9q0 -9 -28 -9q-34 0 -69.5 1t-69.5 1q-44 0 -102 -2q-29 -1 -43 -1q-29 0 -29 11q0 10 23 9l45 -1q24 -1 29 1q15 3 15 19q0 15 -25 65l-107 216l-126 -213q-33 -56 -33 -66q0 -18 33 -21q-2 0 45 0q18 0 18 -10q0 -9 -15 -9l-113 1l-85 -1q-16 0 -16 9t26 12l36 4
q15 4 25 13q19 17 123 196q38 66 68 115l-114 214q-35 66 -48.5 85.5t-28.5 25.5q-16 3 -63 3q-12 0 -12 8q0 11 16 11q22 0 91 -2q34 -1 47 -1q117 0 129 2h14q21 0 21 -8q0 -11 -36 -11q-67 1 -67 -16q0 -18 114 -234q41 60 90 142.5t49 92.5q0 15 -55 15q-27 0 -27 9
q0 10 19 10q13 0 38 -1t38 -1q5 0 46.5 1.5t48.5 1.5h9q17 0 17 -9t-13 -9q-2 0 -32 -1q-34 -1 -46.5 -12t-42.5 -64q-39 -70 -114 -185l-11 -17q7 -13 135 -263q44 -86 63 -102.5t75 -15.5q25 0 25 -9zM913 8q0 -8 -12 -8h-10q-6 3 -136 3q-25 0 -50 -2q-13 -1 -40 -1
q-13 0 -13 9q0 8 26 9q40 1 47 9.5t7 57.5v526q0 49 -5 55q-6 10 -55 12q-19 1 -19 8q0 9 12 9l135 -2q15 0 58 1l38 1q16 0 16 -9q0 -8 -44 -10q-25 -1 -30.5 -9t-5.5 -42v-534q0 -57 5 -62q11 -11 65 -13q11 0 11 -8zM1227 8q0 -8 -12 -8h-10q-6 3 -136 3q-25 0 -50 -2
q-13 -1 -40 -1q-13 0 -13 9q0 8 26 9q40 1 47 9.5t7 57.5v526q0 49 -5 55q-6 10 -55 12q-19 1 -19 8q0 9 12 9l135 -2q15 0 58 1l38 1q16 0 16 -9q0 -8 -44 -10q-25 -1 -30.5 -9t-5.5 -42v-534q0 -57 5 -62q11 -11 65 -13q11 0 11 -8z" />
    <glyph glyph-name="uni216C" unicode="&#x216c;" horiz-adv-x="564" 
d="M555 79q0 -26 -3 -86h-11q-6 0 -29 2t-52 2l-416 3q-17 0 -17 9q0 7 27 9q38 2 45.5 8.5t7.5 37.5v562q0 37 -7.5 43t-53.5 6q-19 0 -19 11q0 9 12 9h9q33 -3 131 -3q9 0 35 1.5t43 1.5h11q18 0 18 -10q0 -6 -5.5 -7.5t-34.5 -2.5t-34.5 -9.5t-5.5 -52.5v-590
q27 -1 75 -1q117 0 165 12t65 45t20 89q1 13 12 13q13 0 12 -15l-1 -25v-9q1 -7 1 -14v-39z" />
    <glyph glyph-name="uni216D" unicode="&#x216d;" horiz-adv-x="653" 
d="M608 223q0 2 -2 -27q-4 -58 -4 -112q0 -6 2 -24.5t2 -44.5v-9q0 -13 -8 -13t-14 15q-14 33 -28 43q-72 -63 -173 -63q-147 0 -243.5 102.5t-96.5 258.5q0 157 88.5 256.5t228.5 99.5q51 0 81.5 -8.5t75.5 -34.5q22 -13 33 -13q9 0 17 16q13 28 21 28t8 -8q0 -4 -2 -13
q-11 -48 -11 -180q0 -19 -3 -22t-8 -3q-10 0 -13 19q-13 80 -37 119q-49 80 -154 80q-81 0 -128 -54q-85 -97 -85 -284q0 -167 70 -259q61 -80 162 -80q52 0 95 25.5t66 69.5q26 51 37 111q4 24 13 24q10 0 10 -15z" />
    <glyph glyph-name="uni216E" unicode="&#x216e;" horiz-adv-x="716" 
d="M674 346q0 -176 -123 -274q-90 -72 -241 -72q-4 0 -35.5 1t-91.5 1h-50l-79 -1q-7 -1 -15 -1q-19 0 -19 10q0 9 32 9q41 0 51 15q4 7 4 38v539q0 49 -7.5 57t-51.5 8q-23 0 -23 11q0 8 17 8q-1 0 22 -1t45 -1h107q180 0 255 -25q91 -30 147 -118.5t56 -203.5zM562 350
q0 166 -65 243.5t-203 77.5q-67 0 -81 -14q-6 -7 -6 -48v-532q0 -28 1.5 -34t8.5 -10q24 -12 101 -12q108 0 174 76q70 80 70 253z" />
    <glyph glyph-name="uni216F" unicode="&#x216f;" horiz-adv-x="755" 
d="M747 8q0 -10 -21 -10h-11q-14 0 -51 1t-57 1q-30 0 -70 -1h-54h-7q-21 0 -21 9q0 10 29 10q51 0 62 11q5 5 5 67v518q0 -1 -11 -35q-40 -121 -116 -364l-47 -159q-14 -47 -20 -47q-7 0 -15 24q-29 91 -164 454l-40 107q1 -19 1 -52v-325q0 -183 3 -185q7 -13 48 -13
q33 0 33 -9q0 -10 -21 -10q-13 0 -24 1q-14 1 -25 1l-115 -3q-18 0 -18 9q0 10 57 11q24 0 28 8t4 52v479q0 83 -2 90q-4 14 -17 19t-56 8q-16 1 -16 9q0 11 29 11q4 0 17 -1h52q59 0 83 1q5 -13 59 -157q23 -60 129 -350q19 65 39 128l106 331q9 29 16 48l150 1q33 0 38 -3
t5 -9q0 -10 -17 -10q-28 0 -38 -2q-24 -4 -33 -16q-5 -7 -5 -117v-465q0 -40 8 -47q13 -9 65 -9h6q20 0 20 -10z" />
    <glyph glyph-name="oneroman" unicode="&#x2170;" horiz-adv-x="251" 
d="M167 629q0 -45 -45 -45q-19 0 -32 12.5t-13 30.5q0 47 45 47t45 -45zM242 6q0 -9 -17 -9q1 0 -24 2q-30 2 -50 2l-104 -2q-5 -1 -12 -1q-11 0 -11 7q0 10 20 10q38 1 41.5 5.5t3.5 41.5l-1 303q-1 25 -2.5 29.5t-12.5 4.5l-29 -1q-4 -1 -10 -1q-11 0 -11 8q0 7 17 8
q67 3 115 32l10 6q8 -15 8 -55q0 2 0 -10q-1 -12 -1 -39v-273q0 -40 1.5 -47t10.5 -9q15 -4 44 -4q14 0 14 -8z" />
    <glyph glyph-name="tworoman" unicode="&#x2171;" horiz-adv-x="502" 
d="M167 629q0 -45 -45 -45q-19 0 -32 12.5t-13 30.5q0 47 45 47t45 -45zM242 6q0 -9 -17 -9q1 0 -24 2q-30 2 -50 2l-104 -2q-5 -1 -12 -1q-11 0 -11 7q0 10 20 10q38 1 41.5 5.5t3.5 41.5l-1 303q-1 25 -2.5 29.5t-12.5 4.5l-29 -1q-4 -1 -10 -1q-11 0 -11 8q0 7 17 8
q67 3 115 32l10 6q8 -15 8 -55q0 2 0 -10q-1 -12 -1 -39v-273q0 -40 1.5 -47t10.5 -9q15 -4 44 -4q14 0 14 -8zM418 629q0 -45 -45 -45q-19 0 -32 12.5t-13 30.5q0 47 45 47t45 -45zM493 6q0 -9 -17 -9q1 0 -24 2q-30 2 -50 2l-104 -2q-5 -1 -12 -1q-11 0 -11 7q0 10 20 10
q38 1 41.5 5.5t3.5 41.5l-1 303q-1 25 -2.5 29.5t-12.5 4.5l-29 -1q-4 -1 -10 -1q-11 0 -11 8q0 7 17 8q67 3 115 32l10 6q8 -15 8 -55q0 2 0 -10q-1 -12 -1 -39v-273q0 -40 1.5 -47t10.5 -9q15 -4 44 -4q14 0 14 -8z" />
    <glyph glyph-name="threeroman" unicode="&#x2172;" horiz-adv-x="753" 
d="M167 629q0 -45 -45 -45q-19 0 -32 12.5t-13 30.5q0 47 45 47t45 -45zM242 6q0 -9 -17 -9q1 0 -24 2q-30 2 -50 2l-104 -2q-5 -1 -12 -1q-11 0 -11 7q0 10 20 10q38 1 41.5 5.5t3.5 41.5l-1 303q-1 25 -2.5 29.5t-12.5 4.5l-29 -1q-4 -1 -10 -1q-11 0 -11 8q0 7 17 8
q67 3 115 32l10 6q8 -15 8 -55q0 2 0 -10q-1 -12 -1 -39v-273q0 -40 1.5 -47t10.5 -9q15 -4 44 -4q14 0 14 -8zM418 629q0 -45 -45 -45q-19 0 -32 12.5t-13 30.5q0 47 45 47t45 -45zM493 6q0 -9 -17 -9q1 0 -24 2q-30 2 -50 2l-104 -2q-5 -1 -12 -1q-11 0 -11 7q0 10 20 10
q38 1 41.5 5.5t3.5 41.5l-1 303q-1 25 -2.5 29.5t-12.5 4.5l-29 -1q-4 -1 -10 -1q-11 0 -11 8q0 7 17 8q67 3 115 32l10 6q8 -15 8 -55q0 2 0 -10q-1 -12 -1 -39v-273q0 -40 1.5 -47t10.5 -9q15 -4 44 -4q14 0 14 -8zM669 629q0 -45 -45 -45q-19 0 -32 12.5t-13 30.5
q0 47 45 47t45 -45zM744 6q0 -9 -17 -9q1 0 -24 2q-30 2 -50 2l-104 -2q-5 -1 -12 -1q-11 0 -11 7q0 10 20 10q38 1 41.5 5.5t3.5 41.5l-1 303q-1 25 -2.5 29.5t-12.5 4.5l-29 -1q-4 -1 -10 -1q-11 0 -11 8q0 7 17 8q67 3 115 32l10 6q8 -15 8 -55q0 2 0 -10q-1 -12 -1 -39
v-273q0 -40 1.5 -47t10.5 -9q15 -4 44 -4q14 0 14 -8z" />
    <glyph glyph-name="fourroman" unicode="&#x2173;" horiz-adv-x="635" 
d="M167 629q0 -45 -45 -45q-19 0 -32 12.5t-13 30.5q0 47 45 47t45 -45zM242 6q0 -9 -17 -9q1 0 -24 2q-30 2 -50 2l-104 -2q-5 -1 -12 -1q-11 0 -11 7q0 10 20 10q38 1 41.5 5.5t3.5 41.5l-1 303q-1 25 -2.5 29.5t-12.5 4.5l-29 -1q-4 -1 -10 -1q-11 0 -11 8q0 7 17 8
q67 3 115 32l10 6q8 -15 8 -55q0 2 0 -10q-1 -12 -1 -39v-273q0 -40 1.5 -47t10.5 -9q15 -4 44 -4q14 0 14 -8zM666 429q0 -8 -19 -8q-7 0 -18 1h-6q-18 0 -28 -22l-12 -38l-84 -258q-7 -20 -20 -61q-16 -55 -26 -55q-7 0 -14 19q-5 12 -10 27q-81 219 -82 218
q-52 148 -63 161q-9 9 -28 8l-23 -1q-10 0 -10 8t14 8l70 -2q16 0 63 1q51 1 53 1h5q10 0 10 -7q0 -8 -31 -8t-31 -8q0 -11 9 -33q16 -40 62 -172q20 -59 33 -90q28 89 50 153q44 130 44 142q0 9 -15 9q-8 0 -13 -1h-9q-13 0 -13 8q0 7 12 7l62 -1l38 1q30 1 30 -7z" />
    <glyph glyph-name="fiveroman" unicode="&#x2174;" horiz-adv-x="384" 
d="M415 429q0 -8 -19 -8q-7 0 -18 1h-6q-18 0 -28 -22l-12 -38l-84 -258q-7 -20 -20 -61q-16 -55 -26 -55q-7 0 -14 19q-5 12 -10 27q-81 219 -82 218q-52 148 -63 161q-9 9 -28 8l-23 -1q-10 0 -10 8t14 8l70 -2q16 0 63 1q51 1 53 1h5q10 0 10 -7q0 -8 -31 -8t-31 -8
q0 -11 9 -33q16 -40 62 -172q20 -59 33 -90q28 89 50 153q44 130 44 142q0 9 -15 9q-8 0 -13 -1h-9q-13 0 -13 8q0 7 12 7l62 -1l38 1q30 1 30 -7z" />
    <glyph glyph-name="sixroman" unicode="&#x2175;" horiz-adv-x="635" 
d="M415 429q0 -8 -19 -8q-7 0 -18 1h-6q-18 0 -28 -22l-12 -38l-84 -258q-7 -20 -20 -61q-16 -55 -26 -55q-7 0 -14 19q-5 12 -10 27q-81 219 -82 218q-52 148 -63 161q-9 9 -28 8l-23 -1q-10 0 -10 8t14 8l70 -2q16 0 63 1q51 1 53 1h5q10 0 10 -7q0 -8 -31 -8t-31 -8
q0 -11 9 -33q16 -40 62 -172q20 -59 33 -90q28 89 50 153q44 130 44 142q0 9 -15 9q-8 0 -13 -1h-9q-13 0 -13 8q0 7 12 7l62 -1l38 1q30 1 30 -7zM551 629q0 -45 -45 -45q-19 0 -32 12.5t-13 30.5q0 47 45 47t45 -45zM626 6q0 -9 -17 -9q1 0 -24 2q-30 2 -50 2l-104 -2
q-5 -1 -12 -1q-11 0 -11 7q0 10 20 10q38 1 41.5 5.5t3.5 41.5l-1 303q-1 25 -2.5 29.5t-12.5 4.5l-29 -1q-4 -1 -10 -1q-11 0 -11 8q0 7 17 8q67 3 115 32l10 6q8 -15 8 -55q0 2 0 -10q-1 -12 -1 -39v-273q0 -40 1.5 -47t10.5 -9q15 -4 44 -4q14 0 14 -8z" />
    <glyph glyph-name="sevenroman" unicode="&#x2176;" horiz-adv-x="886" 
d="M415 429q0 -8 -19 -8q-7 0 -18 1h-6q-18 0 -28 -22l-12 -38l-84 -258q-7 -20 -20 -61q-16 -55 -26 -55q-7 0 -14 19q-5 12 -10 27q-81 219 -82 218q-52 148 -63 161q-9 9 -28 8l-23 -1q-10 0 -10 8t14 8l70 -2q16 0 63 1q51 1 53 1h5q10 0 10 -7q0 -8 -31 -8t-31 -8
q0 -11 9 -33q16 -40 62 -172q20 -59 33 -90q28 89 50 153q44 130 44 142q0 9 -15 9q-8 0 -13 -1h-9q-13 0 -13 8q0 7 12 7l62 -1l38 1q30 1 30 -7zM551 629q0 -45 -45 -45q-19 0 -32 12.5t-13 30.5q0 47 45 47t45 -45zM626 6q0 -9 -17 -9q1 0 -24 2q-30 2 -50 2l-104 -2
q-5 -1 -12 -1q-11 0 -11 7q0 10 20 10q38 1 41.5 5.5t3.5 41.5l-1 303q-1 25 -2.5 29.5t-12.5 4.5l-29 -1q-4 -1 -10 -1q-11 0 -11 8q0 7 17 8q67 3 115 32l10 6q8 -15 8 -55q0 2 0 -10q-1 -12 -1 -39v-273q0 -40 1.5 -47t10.5 -9q15 -4 44 -4q14 0 14 -8zM802 629
q0 -45 -45 -45q-19 0 -32 12.5t-13 30.5q0 47 45 47t45 -45zM877 6q0 -9 -17 -9q1 0 -24 2q-30 2 -50 2l-104 -2q-5 -1 -12 -1q-11 0 -11 7q0 10 20 10q38 1 41.5 5.5t3.5 41.5l-1 303q-1 25 -2.5 29.5t-12.5 4.5l-29 -1q-4 -1 -10 -1q-11 0 -11 8q0 7 17 8q67 3 115 32
l10 6q8 -15 8 -55q0 2 0 -10q-1 -12 -1 -39v-273q0 -40 1.5 -47t10.5 -9q15 -4 44 -4q14 0 14 -8z" />
    <glyph glyph-name="eightroman" unicode="&#x2177;" horiz-adv-x="1137" 
d="M415 429q0 -8 -19 -8q-7 0 -18 1h-6q-18 0 -28 -22l-12 -38l-84 -258q-7 -20 -20 -61q-16 -55 -26 -55q-7 0 -14 19q-5 12 -10 27q-81 219 -82 218q-52 148 -63 161q-9 9 -28 8l-23 -1q-10 0 -10 8t14 8l70 -2q16 0 63 1q51 1 53 1h5q10 0 10 -7q0 -8 -31 -8t-31 -8
q0 -11 9 -33q16 -40 62 -172q20 -59 33 -90q28 89 50 153q44 130 44 142q0 9 -15 9q-8 0 -13 -1h-9q-13 0 -13 8q0 7 12 7l62 -1l38 1q30 1 30 -7zM551 629q0 -45 -45 -45q-19 0 -32 12.5t-13 30.5q0 47 45 47t45 -45zM626 6q0 -9 -17 -9q1 0 -24 2q-30 2 -50 2l-104 -2
q-5 -1 -12 -1q-11 0 -11 7q0 10 20 10q38 1 41.5 5.5t3.5 41.5l-1 303q-1 25 -2.5 29.5t-12.5 4.5l-29 -1q-4 -1 -10 -1q-11 0 -11 8q0 7 17 8q67 3 115 32l10 6q8 -15 8 -55q0 2 0 -10q-1 -12 -1 -39v-273q0 -40 1.5 -47t10.5 -9q15 -4 44 -4q14 0 14 -8zM802 629
q0 -45 -45 -45q-19 0 -32 12.5t-13 30.5q0 47 45 47t45 -45zM877 6q0 -9 -17 -9q1 0 -24 2q-30 2 -50 2l-104 -2q-5 -1 -12 -1q-11 0 -11 7q0 10 20 10q38 1 41.5 5.5t3.5 41.5l-1 303q-1 25 -2.5 29.5t-12.5 4.5l-29 -1q-4 -1 -10 -1q-11 0 -11 8q0 7 17 8q67 3 115 32
l10 6q8 -15 8 -55q0 2 0 -10q-1 -12 -1 -39v-273q0 -40 1.5 -47t10.5 -9q15 -4 44 -4q14 0 14 -8zM1053 629q0 -45 -45 -45q-19 0 -32 12.5t-13 30.5q0 47 45 47t45 -45zM1128 6q0 -9 -17 -9q1 0 -24 2q-30 2 -50 2l-104 -2q-5 -1 -12 -1q-11 0 -11 7q0 10 20 10
q38 1 41.5 5.5t3.5 41.5l-1 303q-1 25 -2.5 29.5t-12.5 4.5l-29 -1q-4 -1 -10 -1q-11 0 -11 8q0 7 17 8q67 3 115 32l10 6q8 -15 8 -55q0 2 0 -10q-1 -12 -1 -39v-273q0 -40 1.5 -47t10.5 -9q15 -4 44 -4q14 0 14 -8z" />
    <glyph glyph-name="nineroman" unicode="&#x2178;" horiz-adv-x="672" 
d="M167 629q0 -45 -45 -45q-19 0 -32 12.5t-13 30.5q0 47 45 47t45 -45zM242 6q0 -9 -17 -9q1 0 -24 2q-30 2 -50 2l-104 -2q-5 -1 -12 -1q-11 0 -11 7q0 10 20 10q38 1 41.5 5.5t3.5 41.5l-1 303q-1 25 -2.5 29.5t-12.5 4.5l-29 -1q-4 -1 -10 -1q-11 0 -11 8q0 7 17 8
q67 3 115 32l10 6q8 -15 8 -55q0 2 0 -10q-1 -12 -1 -39v-273q0 -40 1.5 -47t10.5 -9q15 -4 44 -4q14 0 14 -8zM697 7q0 -8 -18 -8h-11q-6 1 -15 1l-99 1q-37 0 -60 -1q-17 -1 -29 -1q-18 0 -18 8q0 6 6 7t43 1q28 0 28 9q0 7 -10 24q-24 43 -74 129l-6 10
q-103 -147 -103 -163q0 -9 56 -10q10 0 10 -7q0 -9 -17 -9q-6 0 -22 1t-41 1h-9q-14 0 -26 -1l-20 1q-13 -1 -16 -1q-11 0 -11 8t22 9q34 2 53 24l83 125q7 10 28 41q-17 29 -86 161q-20 39 -30.5 46t-50.5 8q-15 0 -15 7q0 8 14 8l113 -2q17 0 46 1q33 1 47 1q26 0 26 -8
t-35 -9q-44 -1 -44 -11q0 -7 19 -41q32 -60 48 -91l4 -8q30 41 60.5 90.5t30.5 57.5q0 6 -24 5l-21 -1q-7 0 -7 8t13 8q-6 0 34 -2q10 -1 20 -1q62 3 54 3h11q7 1 10 1q12 0 12 -6q0 -5 -5.5 -7.5t-27.5 -2.5q-29 0 -38 -8t-19 -25l-19 -32q-13 -22 -38 -59l-33 -49l17 -29
q8 -14 41 -74q16 -28 55 -95q13 -22 25 -28.5t40.5 -6.5t28.5 -8z" />
    <glyph glyph-name="tenroman" unicode="&#x2179;" horiz-adv-x="421" 
d="M446 7q0 -8 -18 -8h-11q-6 1 -15 1l-99 1q-37 0 -60 -1q-17 -1 -29 -1q-18 0 -18 8q0 6 6 7t43 1q28 0 28 9q0 7 -10 24q-24 43 -74 129l-6 10q-103 -147 -103 -163q0 -9 56 -10q10 0 10 -7q0 -9 -17 -9q-6 0 -22 1t-41 1h-9q-14 0 -26 -1l-20 1q-13 -1 -16 -1
q-11 0 -11 8t22 9q34 2 53 24l83 125q7 10 28 41q-17 29 -86 161q-20 39 -30.5 46t-50.5 8q-15 0 -15 7q0 8 14 8l113 -2q17 0 46 1q33 1 47 1q26 0 26 -8t-35 -9q-44 -1 -44 -11q0 -7 19 -41q32 -60 48 -91l4 -8q30 41 60.5 90.5t30.5 57.5q0 6 -24 5l-21 -1q-7 0 -7 8
t13 8q-6 0 34 -2q10 -1 20 -1q62 3 54 3h11q7 1 10 1q12 0 12 -6q0 -5 -5.5 -7.5t-27.5 -2.5q-29 0 -38 -8t-19 -25l-19 -32q-13 -22 -38 -59l-33 -49l17 -29q8 -14 41 -74q16 -28 55 -95q13 -22 25 -28.5t40.5 -6.5t28.5 -8z" />
    <glyph glyph-name="elevenroman" unicode="&#x217a;" horiz-adv-x="672" 
d="M446 7q0 -8 -18 -8h-11q-6 1 -15 1l-99 1q-37 0 -60 -1q-17 -1 -29 -1q-18 0 -18 8q0 6 6 7t43 1q28 0 28 9q0 7 -10 24q-24 43 -74 129l-6 10q-103 -147 -103 -163q0 -9 56 -10q10 0 10 -7q0 -9 -17 -9q-6 0 -22 1t-41 1h-9q-14 0 -26 -1l-20 1q-13 -1 -16 -1
q-11 0 -11 8t22 9q34 2 53 24l83 125q7 10 28 41q-17 29 -86 161q-20 39 -30.5 46t-50.5 8q-15 0 -15 7q0 8 14 8l113 -2q17 0 46 1q33 1 47 1q26 0 26 -8t-35 -9q-44 -1 -44 -11q0 -7 19 -41q32 -60 48 -91l4 -8q30 41 60.5 90.5t30.5 57.5q0 6 -24 5l-21 -1q-7 0 -7 8
t13 8q-6 0 34 -2q10 -1 20 -1q62 3 54 3h11q7 1 10 1q12 0 12 -6q0 -5 -5.5 -7.5t-27.5 -2.5q-29 0 -38 -8t-19 -25l-19 -32q-13 -22 -38 -59l-33 -49l17 -29q8 -14 41 -74q16 -28 55 -95q13 -22 25 -28.5t40.5 -6.5t28.5 -8zM588 629q0 -45 -45 -45q-19 0 -32 12.5
t-13 30.5q0 47 45 47t45 -45zM663 6q0 -9 -17 -9q1 0 -24 2q-30 2 -50 2l-104 -2q-5 -1 -12 -1q-11 0 -11 7q0 10 20 10q38 1 41.5 5.5t3.5 41.5l-1 303q-1 25 -2.5 29.5t-12.5 4.5l-29 -1q-4 -1 -10 -1q-11 0 -11 8q0 7 17 8q67 3 115 32l10 6q8 -15 8 -55q0 2 0 -10
q-1 -12 -1 -39v-273q0 -40 1.5 -47t10.5 -9q15 -4 44 -4q14 0 14 -8z" />
    <glyph glyph-name="twelveroman" unicode="&#x217b;" horiz-adv-x="923" 
d="M446 7q0 -8 -18 -8h-11q-6 1 -15 1l-99 1q-37 0 -60 -1q-17 -1 -29 -1q-18 0 -18 8q0 6 6 7t43 1q28 0 28 9q0 7 -10 24q-24 43 -74 129l-6 10q-103 -147 -103 -163q0 -9 56 -10q10 0 10 -7q0 -9 -17 -9q-6 0 -22 1t-41 1h-9q-14 0 -26 -1l-20 1q-13 -1 -16 -1
q-11 0 -11 8t22 9q34 2 53 24l83 125q7 10 28 41q-17 29 -86 161q-20 39 -30.5 46t-50.5 8q-15 0 -15 7q0 8 14 8l113 -2q17 0 46 1q33 1 47 1q26 0 26 -8t-35 -9q-44 -1 -44 -11q0 -7 19 -41q32 -60 48 -91l4 -8q30 41 60.5 90.5t30.5 57.5q0 6 -24 5l-21 -1q-7 0 -7 8
t13 8q-6 0 34 -2q10 -1 20 -1q62 3 54 3h11q7 1 10 1q12 0 12 -6q0 -5 -5.5 -7.5t-27.5 -2.5q-29 0 -38 -8t-19 -25l-19 -32q-13 -22 -38 -59l-33 -49l17 -29q8 -14 41 -74q16 -28 55 -95q13 -22 25 -28.5t40.5 -6.5t28.5 -8zM588 629q0 -45 -45 -45q-19 0 -32 12.5
t-13 30.5q0 47 45 47t45 -45zM663 6q0 -9 -17 -9q1 0 -24 2q-30 2 -50 2l-104 -2q-5 -1 -12 -1q-11 0 -11 7q0 10 20 10q38 1 41.5 5.5t3.5 41.5l-1 303q-1 25 -2.5 29.5t-12.5 4.5l-29 -1q-4 -1 -10 -1q-11 0 -11 8q0 7 17 8q67 3 115 32l10 6q8 -15 8 -55q0 2 0 -10
q-1 -12 -1 -39v-273q0 -40 1.5 -47t10.5 -9q15 -4 44 -4q14 0 14 -8zM839 629q0 -45 -45 -45q-19 0 -32 12.5t-13 30.5q0 47 45 47t45 -45zM914 6q0 -9 -17 -9q1 0 -24 2q-30 2 -50 2l-104 -2q-5 -1 -12 -1q-11 0 -11 7q0 10 20 10q38 1 41.5 5.5t3.5 41.5l-1 303
q-1 25 -2.5 29.5t-12.5 4.5l-29 -1q-4 -1 -10 -1q-11 0 -11 8q0 7 17 8q67 3 115 32l10 6q8 -15 8 -55q0 2 0 -10q-1 -12 -1 -39v-273q0 -40 1.5 -47t10.5 -9q15 -4 44 -4q14 0 14 -8z" />
    <glyph glyph-name="uni217C" unicode="&#x217c;" horiz-adv-x="235" 
d="M226 7q0 -9 -13 -9h-12q-2 0 -53 2l-31 1q-8 0 -80 -3q-6 -1 -12 -1q-15 -1 -15 9q0 7 11 7h26q28 0 28 12q1 6 1 78v509q0 33 -2 36q-3 8 -16 8h-8l-28 -1q-14 0 -14 9q0 8 25 9q48 3 89 22l21 10l8 3q8 -29 7 -88l-1 -71l1 -490q0 -30 1 -35.5t7 -7.5q1 -1 37 -2
q23 0 23 -7z" />
    <glyph glyph-name="uni217D" unicode="&#x217d;" horiz-adv-x="409" 
d="M395 345q0 -46 -45 -46q-44 0 -44 42q0 11 10 33q3 7 3 14q0 20 -20.5 33t-51.5 13q-60 0 -93 -52t-33 -146q0 -106 34 -163.5t96 -57.5q42 0 75 26q15 12 39 46q5 5 9 5q10 0 10 -8q0 -13 -35 -49q-45 -47 -115 -47q-88 0 -145.5 63t-57.5 159q0 103 61 170.5t153 67.5
q59 0 104.5 -31t45.5 -72z" />
    <glyph glyph-name="uni217E" unicode="&#x217e;" horiz-adv-x="476" 
d="M478 20q0 -7 -14 -7h-5q-8 0 -17 1h-8q-49 0 -83 -20q-14 -8 -17 -8q-9 0 -9 12l1 31q-43 -41 -102 -41q-84 0 -138.5 64.5t-54.5 164.5q0 103 54.5 167t142.5 64q68 0 102 -49v156q0 76 -7 94q-6 15 -18 14q-29 -3 -35 -3q-13 0 -13 9t11 9l36 -1q30 -1 92 28q4 2 7 2
q10 0 10 -24v-21q-1 -16 -1 -28v-345q0 -237 5 -254q2 -7 47 -7q14 0 14 -8zM330 271q0 96 -21 123q-27 34 -69 34q-54 0 -86 -56t-32 -150q0 -90 28 -154q12 -27 35.5 -44.5t48.5 -17.5q31 0 56 18.5t32.5 44.5t7.5 202z" />
    <glyph glyph-name="thousandroman" unicode="&#x217f;" horiz-adv-x="703" 
d="M703 6q0 -8 -17 -8q-2 0 -21.5 1t-52.5 1q-3 0 -106 -2q-13 0 -13 7q0 8 11 8h8l25 1q15 1 17.5 7t2.5 42v248q0 58 -15.5 82.5t-52.5 24.5q-26 0 -48.5 -15.5t-31.5 -39.5q-4 -15 -4 -111v-189q0 -33 1 -38q3 -12 18 -12h29q13 0 13 -8q0 -7 -15 -7h-7q-10 2 -68 2
q-20 0 -53.5 -1t-40.5 -1h-11q-12 0 -12 8q0 5 6 6t40 1q16 1 17 10l1 14v279q0 58 -14.5 80t-51.5 22t-61.5 -23t-24.5 -58v-284q0 -30 4.5 -35.5t29.5 -5.5h8q6 1 11 1q11 0 11 -8q0 -7 -13 -7h-10q-24 3 -75 2l-98 -2q-14 0 -14 8q0 7 13 7q38 0 44 3.5t7 12.5v260
q0 75 -3 88t-29 13h-14q-9 -1 -19 -1q-13 0 -13 7q0 6 4.5 7t32.5 3q23 1 57.5 12t39.5 19q11 11 16 11t6 -8t2 -56q40 64 123 64q89 0 108 -67q39 67 125 67q74 0 100 -53q14 -28 14 -93v-247q0 -34 3.5 -37.5t31.5 -5.5l18 1q11 1 11 -7z" />
    <glyph glyph-name="Dcroat" unicode="&#x110;" horiz-adv-x="716" 
d="M674 345q0 -175 -123 -273q-90 -72 -240 -72q-4 0 -36 1t-92 1h-50l-79 -1q-7 -1 -15 -1q-19 0 -19 10q0 9 32 9q41 0 51 15q4 7 4 38v270h-70q-17 0 -17 12t23 12h64v245q0 49 -7.5 57t-51.5 8q-23 0 -23 11q0 8 17 8q-1 0 22 -1t45 -1h107q179 0 255 -25
q91 -30 147 -119t56 -204zM562 350q0 166 -65 243.5t-204 77.5q-66 0 -80 -14q-6 -7 -6 -48v-243h134q15 0 15 -13q0 -11 -22 -11h-127v-265q0 -28 1.5 -34t8.5 -10q24 -12 101 -12q109 0 174 76q70 81 70 253z" />
    <glyph glyph-name="Ibreve" unicode="&#x12c;" horiz-adv-x="314" 
d="M288 8q0 -8 -12 -8h-10q-6 3 -136 3q-25 0 -50 -2q-13 -1 -40 -1q-13 0 -13 9q0 8 26 9q40 1 47 9.5t7 57.5v526q0 49 -5 55q-6 10 -55 12q-19 1 -19 8q0 9 12 9l135 -2q15 0 58 1l38 1q16 0 16 -9q0 -8 -44 -10q-25 -1 -30.5 -9t-5.5 -42v-534q0 -57 5 -62
q11 -11 65 -13q11 0 11 -8zM272 859q0 -47 -33 -80.5t-79 -33.5q-49 0 -79.5 31t-30.5 80q0 12 9 12q4 0 6 -8q16 -64 96 -64t95 59q3 13 10 13q6 0 6 -9z" />
    <glyph glyph-name="ibreve" unicode="&#x12d;" horiz-adv-x="251" 
d="M242 6q0 -9 -17 -9q1 0 -24 2q-30 2 -50 2l-104 -2q-5 -1 -12 -1q-11 0 -11 7q0 10 20 10q38 1 41.5 5.5t3.5 41.5l-1 303q-1 25 -2.5 29.5t-12.5 4.5l-29 -1q-4 -1 -10 -1q-11 0 -11 8q0 7 17 8q67 3 115 32l10 6q8 -15 8 -55q0 2 0 -10q-1 -12 -1 -39v-273
q0 -40 1.5 -47t10.5 -9q15 -4 44 -4q14 0 14 -8zM247 619q0 -47 -33 -80.5t-79 -33.5q-49 0 -79.5 31t-30.5 80q0 12 9 12q4 0 6 -8q16 -64 96 -64t95 59q3 13 10 13q6 0 6 -9z" />
    <glyph glyph-name="Idotaccent" unicode="&#x130;" horiz-adv-x="314" 
d="M288 8q0 -8 -12 -8h-10q-6 3 -136 3q-25 0 -50 -2q-13 -1 -40 -1q-13 0 -13 9q0 8 26 9q40 1 47 9.5t7 57.5v526q0 49 -5 55q-6 10 -55 12q-19 1 -19 8q0 9 12 9l135 -2q15 0 58 1l38 1q16 0 16 -9q0 -8 -44 -10q-25 -1 -30.5 -9t-5.5 -42v-534q0 -57 5 -62
q11 -11 65 -13q11 0 11 -8zM212 793q0 -20 -14 -34t-35 -14q-22 0 -37 14.5t-15 35.5t15.5 36t37.5 15q20 0 34 -15.5t14 -37.5z" />
    <glyph glyph-name="IJ" unicode="&#x132;" horiz-adv-x="642" 
d="M288 8q0 -8 -12 -8h-10q-6 3 -136 3q-25 0 -50 -2q-13 -1 -40 -1q-13 0 -13 9q0 8 26 9q40 1 47 9.5t7 57.5v526q0 49 -5 55q-6 10 -55 12q-19 1 -19 8q0 9 12 9l135 -2q15 0 58 1l38 1q16 0 16 -9q0 -8 -44 -10q-25 -1 -30.5 -9t-5.5 -42v-534q0 -57 5 -62
q11 -11 65 -13q11 0 11 -8zM625 685q0 -8 -21 -8q-38 0 -47 -2.5t-10.5 -8.5t-1.5 -39v-321l1 -93q1 -69 0 -113q-2 -62 -9 -93q-12 -52 -59 -89.5t-100 -37.5q-39 0 -63 20.5t-24 53.5q0 57 56 57q23 0 38.5 -14t15.5 -36q0 -19 -13 -34q-9 -11 -9 -17q0 -9 15 -9
q32 0 45 39q7 21 7 123v571q0 32 -19 40q-9 3 -48 3q-18 0 -22.5 2t-4.5 6q0 10 16 10q3 0 27 -1q31 -1 51 -1l147 2q32 0 32 -10z" />
    <glyph glyph-name="ij" unicode="&#x133;" horiz-adv-x="488" 
d="M167 629q0 -45 -45 -45q-19 0 -32 12.5t-13 30.5q0 47 45 47t45 -45zM242 6q0 -9 -17 -9q1 0 -24 2q-30 2 -50 2l-104 -2q-5 -1 -12 -1q-11 0 -11 7q0 10 20 10q38 1 41.5 5.5t3.5 41.5l-1 303q-1 25 -2.5 29.5t-12.5 4.5l-29 -1q-4 -1 -10 -1q-11 0 -11 8q0 7 17 8
q67 3 115 32l10 6q8 -15 8 -55q0 2 0 -10q-1 -12 -1 -39v-273q0 -40 1.5 -47t10.5 -9q15 -4 44 -4q14 0 14 -8zM420 628q0 -44 -44 -44q-20 0 -33 12.5t-13 32.5q0 19 12.5 32t31.5 13q46 0 46 -46zM425 -26q0 -107 -37 -169.5t-101 -62.5q-31 0 -51.5 16t-20.5 40
q0 47 51 47q42 0 42 -35q0 -9 -6 -32q-1 -2 -1 -8q0 -9 6 -9q19 0 27.5 30.5t8.5 153.5l-1 441q-1 13 -15 13h-11q-4 -1 -46 -1q-11 0 -11 8q0 7 26 7q71 -1 104 24q18 11 23 11q8 0 9 -11.5t2 -75.5l1 -119q0 -16 1 -43v-31v-194z" />
    <glyph glyph-name="Jcircumflex" unicode="&#x134;" horiz-adv-x="328" 
d="M311 685q0 -8 -21 -8q-38 0 -47 -2.5t-10.5 -8.5t-1.5 -39v-321l1 -93q1 -69 0 -113q-2 -62 -9 -93q-12 -52 -59 -89.5t-100 -37.5q-39 0 -63 20.5t-24 53.5q0 57 56 57q23 0 38.5 -14t15.5 -36q0 -19 -13 -34q-9 -11 -9 -17q0 -9 15 -9q32 0 45 39q7 21 7 123v571
q0 32 -19 40q-9 3 -48 3q-18 0 -22.5 2t-4.5 6q0 10 16 10q3 0 27 -1q31 -1 51 -1l147 2q32 0 32 -10zM297 747h-66q-37 35 -73 111q-21 -43 -48.5 -78t-41.5 -35q-9 0 -9 7q0 4 6 8q46 46 85 130q16 35 25 35q8 0 27 -36q39 -75 95 -142z" />
    <glyph glyph-name="jcircumflex" unicode="&#x135;" horiz-adv-x="237" 
d="M174 -26q0 -107 -37 -169.5t-101 -62.5q-31 0 -51.5 16t-20.5 40q0 47 51 47q42 0 42 -35q0 -9 -6 -32q-1 -2 -1 -8q0 -9 6 -9q19 0 27.5 30.5t8.5 153.5l-1 441q-1 13 -15 13h-11q-4 -1 -46 -1q-11 0 -11 8q0 7 26 7q71 -1 104 24q18 11 23 11q8 0 9 -11.5t2 -75.5
l1 -119q0 -16 1 -43v-31v-194zM242 500h-66q-37 35 -73 111q-21 -43 -48.5 -78t-41.5 -35q-9 0 -9 7q0 4 6 8q46 46 85 130q16 35 25 35q8 0 27 -36q39 -75 95 -142z" />
    <glyph glyph-name="napostrophe" unicode="&#x149;" horiz-adv-x="651" 
d="M207 611q0 -73 -58 -106q-40 -23 -67 -23q-11 0 -11 8q0 7 12 10q46 13 64 31t18 52q0 27 -13 46q0 -34 -43 -34q-22 0 -36.5 14.5t-14.5 35.5q0 25 18.5 42.5t45.5 17.5q37 0 61 -26.5t24 -67.5zM647 6q0 -8 -15 -8h-12q-18 2 -49 2q-98 0 -116 -2h-7q-13 0 -13 7
q0 5 5.5 6t38.5 2q19 1 22 5.5t3 32.5v192q0 109 -8 130q-17 45 -68 45q-50 0 -84 -44q-10 -13 -10 -36l1 -312q0 -12 21 -13l30 -1q10 0 10 -7t-12 -7h-16q-22 2 -70 2q-11 0 -47.5 -1t-42.5 -1h-6q-15 0 -15 7t18 9h25q15 0 18 7l3 15v218q0 114 -2 126t-25 12
q-7 0 -24 -2h-5q-20 0 -20 7q0 9 21 9q30 1 65 11t49 23q9 8 14 8q7 0 7 -19v-48q52 67 134 67q72 0 104 -53q18 -30 18 -114v-228q0 -32 3 -35q6 -6 29 -6q3 0 11 1h7q10 0 10 -7z" />
    <glyph glyph-name="clickretroflex" unicode="&#x1c3;" horiz-adv-x="356" 
d="M234 637q-44 -258 -43 -446q0 -22 -13 -22t-13 20q1 188 -44 448q21 41 22 42q17 28 34 28q13 0 20.5 -9t31.5 -52zM231 48q0 -22 -15.5 -38t-38.5 -16t-38.5 15.5t-15.5 38.5t16 38.5t39 15.5q22 0 37.5 -16t15.5 -38z" />
    <glyph glyph-name="DZcaron" unicode="&#x1c4;" horiz-adv-x="1278" 
d="M674 346q0 -176 -123 -274q-90 -72 -241 -72q-4 0 -35.5 1t-91.5 1h-50l-79 -1q-7 -1 -15 -1q-19 0 -19 10q0 9 32 9q41 0 51 15q4 7 4 38v539q0 49 -7.5 57t-51.5 8q-23 0 -23 11q0 8 17 8q-1 0 22 -1t45 -1h107q180 0 255 -25q91 -30 147 -118.5t56 -203.5zM562 350
q0 166 -65 243.5t-203 77.5q-67 0 -81 -14q-6 -7 -6 -48v-532q0 -28 1.5 -34t8.5 -10q24 -12 101 -12q108 0 174 76q70 80 70 253zM1248 215q0 -7 -1 -11l-5 -33q-7 -44 -18 -129q-2 -14 -5 -44q7 0 -45.5 1t-112.5 1h-74q-142 0 -203 -6q-5 -1 -15 -1q-15 0 -15 8l2 6
q2 3 24 46q68 132 259 489q39 73 64 126q-23 5 -100 5q-122 0 -154 -50q-8 -13 -20.5 -53.5t-16.5 -69.5q-3 -21 -15 -21q-10 0 -10 10q0 8 1 12l7 48q3 23 8 50l7 41q4 23 12 59q60 -6 188 -6q43 0 92 1.5t86 1.5h16q9 0 16 1q-5 -16 -37 -82q-5 -15 -275 -524
q-12 -23 -36 -68q48 -3 117 -3q66 0 93 4q54 9 83 38q43 43 58 148q2 17 13 17q12 0 12 -12zM1120 922q0 -2 -6 -8q-45 -44 -85 -130q-16 -35 -25 -35q-8 0 -27 36q-43 80 -94 142h65q41 -41 73 -111q20 43 48 78t42 35q9 0 9 -7z" />
    <glyph glyph-name="Dzcaron" unicode="&#x1c5;" horiz-adv-x="1162" 
d="M674 346q0 -176 -123 -274q-90 -72 -241 -72q-4 0 -35.5 1t-91.5 1h-50l-79 -1q-7 -1 -15 -1q-19 0 -19 10q0 9 32 9q41 0 51 15q4 7 4 38v539q0 49 -7.5 57t-51.5 8q-23 0 -23 11q0 8 17 8q-1 0 22 -1t45 -1h107q180 0 255 -25q91 -30 147 -118.5t56 -203.5zM562 350
q0 166 -65 243.5t-203 77.5q-67 0 -81 -14q-6 -7 -6 -48v-532q0 -28 1.5 -34t8.5 -10q24 -12 101 -12q108 0 174 76q70 80 70 253zM1091 143q0 -5 -4 -22q-19 -81 -23 -122l-141 1q-62 0 -100 -1q-41 -2 -56 -2h-3q-27 0 -27 8q0 1 3 6q22 39 66 116l174 293q-22 3 -63 3
q-64 0 -90 -23.5t-41 -93.5q-3 -12 -13 -12q-8 0 -8 8q0 1 7 43q12 72 20 96q70 -3 265 -3h13q1 -2 1 -5q0 -11 -52 -100q-118 -200 -190 -317q27 -1 65 -1q119 0 146 44q21 34 32 84q3 9 12 9q7 0 7 -9zM1033 668q0 -2 -6 -8q-45 -44 -85 -130q-16 -35 -25 -35q-8 0 -27 36
q-43 80 -94 142h65q41 -41 73 -111q20 43 48 78t42 35q9 0 9 -7z" />
    <glyph glyph-name="dzcaron" unicode="&#x1c6;" horiz-adv-x="922" 
d="M478 20q0 -7 -14 -7h-5q-8 0 -17 1h-8q-49 0 -83 -20q-14 -8 -17 -8q-9 0 -9 12l1 31q-43 -41 -102 -41q-84 0 -138.5 64.5t-54.5 164.5q0 103 54.5 167t142.5 64q68 0 102 -49v156q0 76 -7 94q-6 15 -18 14q-29 -3 -35 -3q-13 0 -13 9t11 9l36 -1q30 -1 92 28q4 2 7 2
q10 0 10 -24v-21q-1 -16 -1 -28v-345q0 -237 5 -254q2 -7 47 -7q14 0 14 -8zM330 271q0 96 -21 123q-27 34 -69 34q-54 0 -86 -56t-32 -150q0 -90 28 -154q12 -27 35.5 -44.5t48.5 -17.5q31 0 56 18.5t32.5 44.5t7.5 202zM851 143q0 -5 -4 -22q-19 -81 -23 -122l-141 1
q-62 0 -100 -1q-41 -2 -56 -2h-3q-27 0 -27 8q0 1 3 6q22 39 66 116l174 293q-22 3 -63 3q-64 0 -90 -23.5t-41 -93.5q-3 -12 -13 -12q-8 0 -8 8q0 1 7 43q12 72 20 96q70 -3 265 -3h13q1 -2 1 -5q0 -11 -52 -100q-118 -200 -190 -317q27 -1 65 -1q119 0 146 44q21 34 32 84
q3 9 12 9q7 0 7 -9zM793 668q0 -2 -6 -8q-45 -44 -85 -130q-16 -35 -25 -35q-8 0 -27 36q-43 80 -94 142h65q41 -41 73 -111q20 43 48 78t42 35q9 0 9 -7z" />
    <glyph glyph-name="LJ" unicode="&#x1c7;" horiz-adv-x="892" 
d="M555 79q0 -26 -3 -86h-11q-6 0 -29 2t-52 2l-416 3q-17 0 -17 9q0 7 27 9q38 2 45.5 8.5t7.5 37.5v562q0 37 -7.5 43t-53.5 6q-19 0 -19 11q0 9 12 9h9q33 -3 131 -3q9 0 35 1.5t43 1.5h11q18 0 18 -10q0 -6 -5.5 -7.5t-34.5 -2.5t-34.5 -9.5t-5.5 -52.5v-590
q27 -1 75 -1q117 0 165 12t65 45t20 89q1 13 12 13q13 0 12 -15l-1 -25v-9q1 -7 1 -14v-39zM875 685q0 -8 -21 -8q-38 0 -47 -2.5t-10.5 -8.5t-1.5 -39v-321l1 -93q1 -69 0 -113q-2 -62 -9 -93q-12 -52 -59 -89.5t-100 -37.5q-39 0 -63 20.5t-24 53.5q0 57 56 57
q23 0 38.5 -14t15.5 -36q0 -19 -13 -34q-9 -11 -9 -17q0 -9 15 -9q32 0 45 39q7 21 7 123v571q0 32 -19 40q-9 3 -48 3q-18 0 -22.5 2t-4.5 6q0 10 16 10q3 0 27 -1q31 -1 51 -1l147 2q32 0 32 -10z" />
    <glyph glyph-name="Lj" unicode="&#x1c8;" horiz-adv-x="801" 
d="M555 79q0 -26 -3 -86h-11q-6 0 -29 2t-52 2l-416 3q-17 0 -17 9q0 7 27 9q38 2 45.5 8.5t7.5 37.5v562q0 37 -7.5 43t-53.5 6q-19 0 -19 11q0 9 12 9h9q33 -3 131 -3q9 0 35 1.5t43 1.5h11q18 0 18 -10q0 -6 -5.5 -7.5t-34.5 -2.5t-34.5 -9.5t-5.5 -52.5v-590
q27 -1 75 -1q117 0 165 12t65 45t20 89q1 13 12 13q13 0 12 -15l-1 -25v-9q1 -7 1 -14v-39zM733 628q0 -44 -44 -44q-20 0 -33 12.5t-13 32.5q0 19 12.5 32t31.5 13q46 0 46 -46zM738 -26q0 -107 -37 -169.5t-101 -62.5q-31 0 -51.5 16t-20.5 40q0 47 51 47q42 0 42 -35
q0 -9 -6 -32q-1 -2 -1 -8q0 -9 6 -9q19 0 27.5 30.5t8.5 153.5l-1 441q-1 13 -15 13h-11q-4 -1 -46 -1q-11 0 -11 8q0 7 26 7q71 -1 104 24q18 11 23 11q8 0 9 -11.5t2 -75.5l1 -119q0 -16 1 -43v-31v-194z" />
    <glyph glyph-name="lj" unicode="&#x1c9;" horiz-adv-x="472" 
d="M226 7q0 -9 -13 -9h-12q-2 0 -53 2l-31 1q-8 0 -80 -3q-6 -1 -12 -1q-15 -1 -15 9q0 7 11 7h26q28 0 28 12q1 6 1 78v509q0 33 -2 36q-3 8 -16 8h-8l-28 -1q-14 0 -14 9q0 8 25 9q48 3 89 22l21 10l8 3q8 -29 7 -88l-1 -71l1 -490q0 -30 1 -35.5t7 -7.5q1 -1 37 -2
q23 0 23 -7zM404 628q0 -44 -44 -44q-20 0 -33 12.5t-13 32.5q0 19 12.5 32t31.5 13q46 0 46 -46zM409 -26q0 -107 -37 -169.5t-101 -62.5q-31 0 -51.5 16t-20.5 40q0 47 51 47q42 0 42 -35q0 -9 -6 -32q-1 -2 -1 -8q0 -9 6 -9q19 0 27.5 30.5t8.5 153.5l-1 441
q-1 13 -15 13h-11q-4 -1 -46 -1q-11 0 -11 8q0 7 26 7q71 -1 104 24q18 11 23 11q8 0 9 -11.5t2 -75.5l1 -119q0 -16 1 -43v-31v-194z" />
    <glyph glyph-name="NJ" unicode="&#x1ca;" horiz-adv-x="984" 
d="M642 685q0 -10 -25 -9l-22 1h-18q-16 0 -19 -5.5t-3 -33.5v-576q0 -53 -1 -62t-6 -9q-6 0 -14 11l-128 187q-111 163 -270 407l1 -558q1 -13 15 -16.5t67 -4.5q13 0 13 -8q0 -10 -26 -10q-9 0 -57 3q-16 1 -31 1q1 0 -17.5 -2t-56.5 -2h-10q-23 0 -23 9t20 9
q59 1 68.5 7.5t9.5 42.5v493q0 83 -34 104q-16 10 -57 10q-26 0 -26 10q0 9 15 9q20 0 51 -1t33 -1q3 0 28 1q33 0 64 1l345 -513v445q0 31 -1 37.5t-8 10t-48 3.5q-36 0 -36 9q0 10 24 10h35h28q16 -1 19 -1q1 0 18 1h30h31q22 0 22 -10zM967 685q0 -8 -21 -8
q-38 0 -47 -2.5t-10.5 -8.5t-1.5 -39v-321l1 -93q1 -69 0 -113q-2 -62 -9 -93q-12 -52 -59 -89.5t-100 -37.5q-39 0 -63 20.5t-24 53.5q0 57 56 57q23 0 38.5 -14t15.5 -36q0 -19 -13 -34q-9 -11 -9 -17q0 -9 15 -9q32 0 45 39q7 21 7 123v571q0 32 -19 40q-9 3 -48 3
q-18 0 -22.5 2t-4.5 6q0 10 16 10q3 0 27 -1q31 -1 51 -1l147 2q32 0 32 -10z" />
    <glyph glyph-name="Nj" unicode="&#x1cb;" horiz-adv-x="893" 
d="M642 685q0 -10 -25 -9l-22 1h-18q-16 0 -19 -5.5t-3 -33.5v-576q0 -53 -1 -62t-6 -9q-6 0 -14 11l-128 187q-111 163 -270 407l1 -558q1 -13 15 -16.5t67 -4.5q13 0 13 -8q0 -10 -26 -10q-9 0 -57 3q-16 1 -31 1q1 0 -17.5 -2t-56.5 -2h-10q-23 0 -23 9t20 9
q59 1 68.5 7.5t9.5 42.5v493q0 83 -34 104q-16 10 -57 10q-26 0 -26 10q0 9 15 9q20 0 51 -1t33 -1q3 0 28 1q33 0 64 1l345 -513v445q0 31 -1 37.5t-8 10t-48 3.5q-36 0 -36 9q0 10 24 10h35h28q16 -1 19 -1q1 0 18 1h30h31q22 0 22 -10zM825 628q0 -44 -44 -44
q-20 0 -33 12.5t-13 32.5q0 19 12.5 32t31.5 13q46 0 46 -46zM830 -26q0 -107 -37 -169.5t-101 -62.5q-31 0 -51.5 16t-20.5 40q0 47 51 47q42 0 42 -35q0 -9 -6 -32q-1 -2 -1 -8q0 -9 6 -9q19 0 27.5 30.5t8.5 153.5l-1 441q-1 13 -15 13h-11q-4 -1 -46 -1q-11 0 -11 8
q0 7 26 7q71 -1 104 24q18 11 23 11q8 0 9 -11.5t2 -75.5l1 -119q0 -16 1 -43v-31v-194z" />
    <glyph glyph-name="nj" unicode="&#x1cc;" horiz-adv-x="726" 
d="M485 6q0 -8 -15 -8h-12q-18 2 -49 2q-98 0 -116 -2h-7q-13 0 -13 7q0 5 5.5 6t38.5 2q19 1 22 5.5t3 32.5v192q0 109 -8 130q-17 45 -68 45q-50 0 -84 -44q-10 -13 -10 -36l1 -312q0 -12 21 -13l30 -1q10 0 10 -7t-12 -7h-16q-22 2 -70 2q-11 0 -47.5 -1t-42.5 -1h-6
q-15 0 -15 7t18 9h25q15 0 18 7l3 15v218q0 114 -2 126t-25 12q-7 0 -24 -2h-5q-20 0 -20 7q0 9 21 9q30 1 65 11t49 23q9 8 14 8q7 0 7 -19v-48q52 67 134 67q72 0 104 -53q18 -30 18 -114v-228q0 -32 3 -35q6 -6 29 -6q3 0 11 1h7q10 0 10 -7zM658 628q0 -44 -44 -44
q-20 0 -33 12.5t-13 32.5q0 19 12.5 32t31.5 13q46 0 46 -46zM663 -26q0 -107 -37 -169.5t-101 -62.5q-31 0 -51.5 16t-20.5 40q0 47 51 47q42 0 42 -35q0 -9 -6 -32q-1 -2 -1 -8q0 -9 6 -9q19 0 27.5 30.5t8.5 153.5l-1 441q-1 13 -15 13h-11q-4 -1 -46 -1q-11 0 -11 8
q0 7 26 7q71 -1 104 24q18 11 23 11q8 0 9 -11.5t2 -75.5l1 -119q0 -16 1 -43v-31v-194z" />
    <glyph glyph-name="Acaron" unicode="&#x1cd;" horiz-adv-x="602" 
d="M647 7q0 -9 -15 -9q-10 0 -18 1l-127 2l-127 -2q-7 -1 -15 -1q-20 0 -20 10q0 11 27 11q88 1 88 18q0 1 -2 8l-8 27l-5 14q-9 31 -44 137h-214q-60 -160 -60 -184q0 -14 12 -17q3 -1 50 -4q29 -1 29 -10q0 -10 -26 -10q-46 0 -107 4q-15 1 -31 1t-31 -2q-8 -1 -13 -1
q-14 0 -14 9t31.5 10t45.5 9.5t22 32.5q129 368 210 591q2 12 8 27l5 18q3 11 8 11q3 0 5 -6q13 -39 59 -163q36 -97 179 -487q8 -22 20.5 -28t51.5 -7q26 -1 26 -10zM375 246q-16 45 -53 149l-48 137q-42 -110 -101 -286h202zM430 931q0 -2 -6 -8q-45 -44 -85 -130
q-16 -35 -25 -35q-8 0 -27 36q-43 80 -94 142h65q41 -41 73 -111q20 43 48 78t42 35q9 0 9 -7z" />
    <glyph glyph-name="acaron" unicode="&#x1ce;" horiz-adv-x="397" 
d="M429 45q0 -17 -35.5 -35.5t-68.5 -18.5q-69 0 -72 71q-38 -74 -118 -74q-43 0 -71 25.5t-28 65.5q0 82 99 130q34 16 118 32v25q0 88 -9 116q-16 51 -72 51q-35 0 -58.5 -19t-23.5 -48q0 -8 12.5 -8t22.5 -12t10 -27q0 -44 -44 -44q-23 0 -38 15.5t-15 39.5q0 47 37 81
q41 37 114 37q110 0 135 -60q9 -23 9 -91v-187q0 -46 1 -54q5 -36 29 -36q28 0 46 20q10 11 15 11t5 -6zM253 151v73q-75 -17 -107.5 -44.5t-32.5 -73.5q0 -32 18.5 -52.5t46.5 -20.5q43 0 69 48q6 11 6 70zM355 671q0 -2 -6 -8q-45 -44 -85 -130q-16 -35 -25 -35
q-8 0 -27 36q-43 80 -94 142h65q41 -41 73 -111q20 43 48 78t42 35q9 0 9 -7z" />
    <glyph glyph-name="Icaron" unicode="&#x1cf;" horiz-adv-x="314" 
d="M288 8q0 -8 -12 -8h-10q-6 3 -136 3q-25 0 -50 -2q-13 -1 -40 -1q-13 0 -13 9q0 8 26 9q40 1 47 9.5t7 57.5v526q0 49 -5 55q-6 10 -55 12q-19 1 -19 8q0 9 12 9l135 -2q15 0 58 1l38 1q16 0 16 -9q0 -8 -44 -10q-25 -1 -30.5 -9t-5.5 -42v-534q0 -57 5 -62
q11 -11 65 -13q11 0 11 -8zM280 918q0 -2 -6 -8q-45 -44 -85 -130q-16 -35 -25 -35q-8 0 -27 36q-43 80 -94 142h65q41 -41 73 -111q20 43 48 78t42 35q9 0 9 -7z" />
    <glyph glyph-name="icaron" unicode="&#x1d0;" horiz-adv-x="251" 
d="M242 6q0 -9 -17 -9q1 0 -24 2q-30 2 -50 2l-104 -2q-5 -1 -12 -1q-11 0 -11 7q0 10 20 10q38 1 41.5 5.5t3.5 41.5l-1 303q-1 25 -2.5 29.5t-12.5 4.5l-29 -1q-4 -1 -10 -1q-11 0 -11 8q0 7 17 8q67 3 115 32l10 6q8 -15 8 -55q0 2 0 -10q-1 -12 -1 -39v-273
q0 -40 1.5 -47t10.5 -9q15 -4 44 -4q14 0 14 -8zM255 674q0 -2 -6 -8q-45 -44 -85 -130q-16 -35 -25 -35q-8 0 -27 36q-43 80 -94 142h65q41 -41 73 -111q20 43 48 78t42 35q9 0 9 -7z" />
    <glyph glyph-name="Ocaron" unicode="&#x1d1;" horiz-adv-x="720" 
d="M678 343q0 -149 -89.5 -252t-219.5 -103q-138 0 -232 104.5t-94 257.5q0 156 90.5 255.5t231.5 99.5q133 0 223 -104t90 -258zM566 338q0 183 -75 285q-47 64 -131 64q-80 0 -124 -49q-81 -90 -81 -293q0 -161 56.5 -250t158.5 -89q95 0 143 84q53 93 53 248zM479 928
q0 -2 -6 -8q-45 -44 -85 -130q-16 -35 -25 -35q-8 0 -27 36q-43 80 -94 142h65q41 -41 73 -111q20 43 48 78t42 35q9 0 9 -7z" />
    <glyph glyph-name="ocaron" unicode="&#x1d2;" horiz-adv-x="480" 
d="M450 216q0 -97 -59 -162.5t-147 -65.5q-91 0 -152 65.5t-61 162.5q0 100 59.5 166t148.5 66q90 0 150.5 -66.5t60.5 -165.5zM359 217q0 110 -34 171q-25 45 -84 45q-56 0 -87.5 -57.5t-31.5 -159.5q0 -101 33.5 -157.5t93.5 -56.5q46 0 68 35q42 66 42 180zM363 671
q0 -2 -6 -8q-45 -44 -85 -130q-16 -35 -25 -35q-8 0 -27 36q-43 80 -94 142h65q41 -41 73 -111q20 43 48 78t42 35q9 0 9 -7z" />
    <glyph glyph-name="Ucaron" unicode="&#x1d3;" horiz-adv-x="666" 
d="M657 685q0 -9 -18 -9q-3 0 -20 1q-5 1 -14 1q-25 0 -30 -13q-2 -7 -2 -23v-375q0 -146 -54.5 -212.5t-175.5 -66.5q-145 0 -204 82q-39 55 -39 181l-1 401q-3 18 -24 22q-6 1 -37 1q-17 2 -17 10q0 9 14 9h18q5 0 23 -1h29l143 1q5 1 12 1q17 0 17 -11q0 -7 -6 -8t-40 -2
q-14 0 -19 -2q-10 -4 -11 -14q-1 -4 -1 -57v-358q0 -132 42 -180t125 -48q152 0 172 173q3 26 3 220v57l1 80l-1 69v22q1 13 1 11q0 22 -21 27q-7 2 -41 2q-20 0 -20 11q0 9 14 9q8 0 13 -1q12 -1 87 -1q11 0 25 1h19h15q23 0 23 -10zM458 919q0 -2 -6 -8q-45 -44 -85 -130
q-16 -35 -25 -35q-8 0 -27 36q-43 80 -94 142h65q41 -41 73 -111q20 43 48 78t42 35q9 0 9 -7z" />
    <glyph glyph-name="ucaron" unicode="&#x1d4;" horiz-adv-x="490" 
d="M500 34q0 -7 -22 -8q-78 -5 -137 -34q-4 -2 -7 -2q-6 0 -6 8l1 56q-46 -66 -129 -66q-74 0 -106 43q-13 18 -15.5 33t-2.5 81v229q0 35 -4 41t-27 7l-13 -1q-27 -2 -27 8q0 7 17 7q18 0 52 -2q17 -1 20 -1q35 0 65 3v-279q0 -77 10 -102q16 -39 65 -39q53 0 78 44
q18 32 18 102v155q0 34 -1 51l-2 33q-1 15 -6.5 17.5t-22.5 2.5q-42 -1 -42 9q0 6 21 6h9q8 -1 53 -1q60 0 74 1v-279q0 -72 3 -91t15.5 -22t56.5 -3q12 0 12 -7zM372 663q0 -2 -6 -8q-45 -44 -85 -130q-16 -35 -25 -35q-8 0 -27 36q-43 80 -94 142h65q41 -41 73 -111
q20 43 48 78t42 35q9 0 9 -7z" />
    <glyph glyph-name="Udieresismacron" unicode="&#x1d5;" horiz-adv-x="666" 
d="M657 685q0 -9 -18 -9q-3 0 -20 1q-5 1 -14 1q-25 0 -30 -13q-2 -7 -2 -23v-375q0 -146 -54.5 -212.5t-175.5 -66.5q-145 0 -204 82q-39 55 -39 181l-1 401q-3 18 -24 22q-6 1 -37 1q-17 2 -17 10q0 9 14 9h18q5 0 23 -1h29l143 1q5 1 12 1q17 0 17 -11q0 -7 -6 -8t-40 -2
q-14 0 -19 -2q-10 -4 -11 -14q-1 -4 -1 -57v-358q0 -132 42 -180t125 -48q152 0 172 173q3 26 3 220v57l1 80l-1 69v22q1 13 1 11q0 22 -21 27q-7 2 -41 2q-20 0 -20 11q0 9 14 9q8 0 13 -1q12 -1 87 -1q11 0 25 1h19h15q23 0 23 -10zM474 792q0 -19 -13.5 -32t-33.5 -13
q-21 0 -35 13.5t-14 33.5t14.5 34.5t35.5 14.5q20 0 33 -14.5t13 -36.5zM302 793q0 -19 -14.5 -33t-34.5 -14t-34 14t-14 34q0 21 14 35t35 14q19 0 33.5 -15t14.5 -35zM458 893h-237v49h237v-49z" />
    <glyph glyph-name="udieresismacron" unicode="&#x1d6;" horiz-adv-x="490" 
d="M500 34q0 -7 -22 -8q-78 -5 -137 -34q-4 -2 -7 -2q-6 0 -6 8l1 56q-46 -66 -129 -66q-74 0 -106 43q-13 18 -15.5 33t-2.5 81v229q0 35 -4 41t-27 7l-13 -1q-27 -2 -27 8q0 7 17 7q18 0 52 -2q17 -1 20 -1q35 0 65 3v-279q0 -77 10 -102q16 -39 65 -39q53 0 78 44
q18 32 18 102v155q0 34 -1 51l-2 33q-1 15 -6.5 17.5t-22.5 2.5q-42 -1 -42 9q0 6 21 6h9q8 -1 53 -1q60 0 74 1v-279q0 -72 3 -91t15.5 -22t56.5 -3q12 0 12 -7zM387 536q0 -19 -13.5 -32t-33.5 -13q-21 0 -35 13.5t-14 33.5t14.5 34.5t35.5 14.5q20 0 33 -14.5t13 -36.5z
M215 537q0 -19 -14.5 -33t-34.5 -14t-34 14t-14 34q0 21 14 35t35 14q19 0 33.5 -15t14.5 -35zM371 633h-237v49h237v-49z" />
    <glyph glyph-name="Udieresisacute" unicode="&#x1d7;" horiz-adv-x="666" 
d="M657 685q0 -9 -18 -9q-3 0 -20 1q-5 1 -14 1q-25 0 -30 -13q-2 -7 -2 -23v-375q0 -146 -54.5 -212.5t-175.5 -66.5q-145 0 -204 82q-39 55 -39 181l-1 401q-3 18 -24 22q-6 1 -37 1q-17 2 -17 10q0 9 14 9h18q5 0 23 -1h29l143 1q5 1 12 1q17 0 17 -11q0 -7 -6 -8t-40 -2
q-14 0 -19 -2q-10 -4 -11 -14q-1 -4 -1 -57v-358q0 -132 42 -180t125 -48q152 0 172 173q3 26 3 220v57l1 80l-1 69v22q1 13 1 11q0 22 -21 27q-7 2 -41 2q-20 0 -20 11q0 9 14 9q8 0 13 -1q12 -1 87 -1q11 0 25 1h19h15q23 0 23 -10zM474 792q0 -19 -13.5 -32t-33.5 -13
q-21 0 -35 13.5t-14 33.5t14.5 34.5t35.5 14.5q20 0 33 -14.5t13 -36.5zM302 793q0 -19 -14.5 -33t-34.5 -14t-34 14t-14 34q0 21 14 35t35 14q19 0 33.5 -15t14.5 -35zM423 1051l-91 -95q-60 -63 -70 -63q-6 0 -6 5q0 2 2 6q11 27 33 78l32 70h33h14q13 -1 35 -1h18z" />
    <glyph glyph-name="udieresisacute" unicode="&#x1d8;" horiz-adv-x="490" 
d="M500 34q0 -7 -22 -8q-78 -5 -137 -34q-4 -2 -7 -2q-6 0 -6 8l1 56q-46 -66 -129 -66q-74 0 -106 43q-13 18 -15.5 33t-2.5 81v229q0 35 -4 41t-27 7l-13 -1q-27 -2 -27 8q0 7 17 7q18 0 52 -2q17 -1 20 -1q35 0 65 3v-279q0 -77 10 -102q16 -39 65 -39q53 0 78 44
q18 32 18 102v155q0 34 -1 51l-2 33q-1 15 -6.5 17.5t-22.5 2.5q-42 -1 -42 9q0 6 21 6h9q8 -1 53 -1q60 0 74 1v-279q0 -72 3 -91t15.5 -22t56.5 -3q12 0 12 -7zM387 536q0 -19 -13.5 -32t-33.5 -13q-21 0 -35 13.5t-14 33.5t14.5 34.5t35.5 14.5q20 0 33 -14.5t13 -36.5z
M215 537q0 -19 -14.5 -33t-34.5 -14t-34 14t-14 34q0 21 14 35t35 14q19 0 33.5 -15t14.5 -35zM340 791l-91 -95q-60 -63 -70 -63q-6 0 -6 5q0 2 2 6q11 27 33 78l32 70h33h14q13 -1 35 -1h18z" />
    <glyph glyph-name="Udieresiscaron" unicode="&#x1d9;" horiz-adv-x="666" 
d="M657 685q0 -9 -18 -9q-3 0 -20 1q-5 1 -14 1q-25 0 -30 -13q-2 -7 -2 -23v-375q0 -146 -54.5 -212.5t-175.5 -66.5q-145 0 -204 82q-39 55 -39 181l-1 401q-3 18 -24 22q-6 1 -37 1q-17 2 -17 10q0 9 14 9h18q5 0 23 -1h29l143 1q5 1 12 1q17 0 17 -11q0 -7 -6 -8t-40 -2
q-14 0 -19 -2q-10 -4 -11 -14q-1 -4 -1 -57v-358q0 -132 42 -180t125 -48q152 0 172 173q3 26 3 220v57l1 80l-1 69v22q1 13 1 11q0 22 -21 27q-7 2 -41 2q-20 0 -20 11q0 9 14 9q8 0 13 -1q12 -1 87 -1q11 0 25 1h19h15q23 0 23 -10zM474 792q0 -19 -13.5 -32t-33.5 -13
q-21 0 -35 13.5t-14 33.5t14.5 34.5t35.5 14.5q20 0 33 -14.5t13 -36.5zM302 793q0 -19 -14.5 -33t-34.5 -14t-34 14t-14 34q0 21 14 35t35 14q19 0 33.5 -15t14.5 -35zM458 1066q0 -2 -6 -8q-45 -44 -85 -130q-16 -35 -25 -35q-8 0 -27 36q-43 80 -94 142h65
q41 -41 73 -111q20 43 48 78t42 35q9 0 9 -7z" />
    <glyph glyph-name="udieresiscaron" unicode="&#x1da;" horiz-adv-x="490" 
d="M500 34q0 -7 -22 -8q-78 -5 -137 -34q-4 -2 -7 -2q-6 0 -6 8l1 56q-46 -66 -129 -66q-74 0 -106 43q-13 18 -15.5 33t-2.5 81v229q0 35 -4 41t-27 7l-13 -1q-27 -2 -27 8q0 7 17 7q18 0 52 -2q17 -1 20 -1q35 0 65 3v-279q0 -77 10 -102q16 -39 65 -39q53 0 78 44
q18 32 18 102v155q0 34 -1 51l-2 33q-1 15 -6.5 17.5t-22.5 2.5q-42 -1 -42 9q0 6 21 6h9q8 -1 53 -1q60 0 74 1v-279q0 -72 3 -91t15.5 -22t56.5 -3q12 0 12 -7zM387 536q0 -19 -13.5 -32t-33.5 -13q-21 0 -35 13.5t-14 33.5t14.5 34.5t35.5 14.5q20 0 33 -14.5t13 -36.5z
M215 537q0 -19 -14.5 -33t-34.5 -14t-34 14t-14 34q0 21 14 35t35 14q19 0 33.5 -15t14.5 -35zM372 806q0 -2 -6 -8q-45 -44 -85 -130q-16 -35 -25 -35q-8 0 -27 36q-43 80 -94 142h65q41 -41 73 -111q20 43 48 78t42 35q9 0 9 -7z" />
    <glyph glyph-name="Udieresisgrave" unicode="&#x1db;" horiz-adv-x="666" 
d="M657 685q0 -9 -18 -9q-3 0 -20 1q-5 1 -14 1q-25 0 -30 -13q-2 -7 -2 -23v-375q0 -146 -54.5 -212.5t-175.5 -66.5q-145 0 -204 82q-39 55 -39 181l-1 401q-3 18 -24 22q-6 1 -37 1q-17 2 -17 10q0 9 14 9h18q5 0 23 -1h29l143 1q5 1 12 1q17 0 17 -11q0 -7 -6 -8t-40 -2
q-14 0 -19 -2q-10 -4 -11 -14q-1 -4 -1 -57v-358q0 -132 42 -180t125 -48q152 0 172 173q3 26 3 220v57l1 80l-1 69v22q1 13 1 11q0 22 -21 27q-7 2 -41 2q-20 0 -20 11q0 9 14 9q8 0 13 -1q12 -1 87 -1q11 0 25 1h19h15q23 0 23 -10zM474 792q0 -19 -13.5 -32t-33.5 -13
q-21 0 -35 13.5t-14 33.5t14.5 34.5t35.5 14.5q20 0 33 -14.5t13 -36.5zM302 793q0 -19 -14.5 -33t-34.5 -14t-34 14t-14 34q0 21 14 35t35 14q19 0 33.5 -15t14.5 -35zM423 898q0 -5 -6 -5q-10 0 -70 63l-91 95h17l29 1h53l41 -89q0 -1 11 -26l14 -33q2 -4 2 -6z" />
    <glyph glyph-name="udieresisgrave" unicode="&#x1dc;" horiz-adv-x="490" 
d="M500 34q0 -7 -22 -8q-78 -5 -137 -34q-4 -2 -7 -2q-6 0 -6 8l1 56q-46 -66 -129 -66q-74 0 -106 43q-13 18 -15.5 33t-2.5 81v229q0 35 -4 41t-27 7l-13 -1q-27 -2 -27 8q0 7 17 7q18 0 52 -2q17 -1 20 -1q35 0 65 3v-279q0 -77 10 -102q16 -39 65 -39q53 0 78 44
q18 32 18 102v155q0 34 -1 51l-2 33q-1 15 -6.5 17.5t-22.5 2.5q-42 -1 -42 9q0 6 21 6h9q8 -1 53 -1q60 0 74 1v-279q0 -72 3 -91t15.5 -22t56.5 -3q12 0 12 -7zM387 536q0 -19 -13.5 -32t-33.5 -13q-21 0 -35 13.5t-14 33.5t14.5 34.5t35.5 14.5q20 0 33 -14.5t13 -36.5z
M215 537q0 -19 -14.5 -33t-34.5 -14t-34 14t-14 34q0 21 14 35t35 14q19 0 33.5 -15t14.5 -35zM336 638q0 -5 -6 -5q-10 0 -70 63l-91 95h17l29 1h53l41 -89q0 -1 11 -26l14 -33q2 -4 2 -6z" />
    <glyph glyph-name="Adieresismacron" unicode="&#x1de;" horiz-adv-x="602" 
d="M647 7q0 -9 -15 -9q-10 0 -18 1l-127 2l-127 -2q-7 -1 -15 -1q-20 0 -20 10q0 11 27 11q88 1 88 18q0 1 -2 8l-8 27l-5 14q-9 31 -44 137h-214q-60 -160 -60 -184q0 -14 12 -17q3 -1 50 -4q29 -1 29 -10q0 -10 -26 -10q-46 0 -107 4q-15 1 -31 1t-31 -2q-8 -1 -13 -1
q-14 0 -14 9t31.5 10t45.5 9.5t22 32.5q129 368 210 591q2 12 8 27l5 18q3 11 8 11q3 0 5 -6q13 -39 59 -163q36 -97 179 -487q8 -22 20.5 -28t51.5 -7q26 -1 26 -10zM375 246q-16 45 -53 149l-48 137q-42 -110 -101 -286h202zM446 804q0 -19 -13.5 -32t-33.5 -13
q-21 0 -35 13.5t-14 33.5t14.5 34.5t35.5 14.5q20 0 33 -14.5t13 -36.5zM274 805q0 -19 -14.5 -33t-34.5 -14t-34 14t-14 34q0 21 14 35t35 14q19 0 33.5 -15t14.5 -35zM430 905h-237v49h237v-49z" />
    <glyph glyph-name="adieresismacron" unicode="&#x1df;" horiz-adv-x="397" 
d="M429 45q0 -17 -35.5 -35.5t-68.5 -18.5q-69 0 -72 71q-38 -74 -118 -74q-43 0 -71 25.5t-28 65.5q0 82 99 130q34 16 118 32v25q0 88 -9 116q-16 51 -72 51q-35 0 -58.5 -19t-23.5 -48q0 -8 12.5 -8t22.5 -12t10 -27q0 -44 -44 -44q-23 0 -38 15.5t-15 39.5q0 47 37 81
q41 37 114 37q110 0 135 -60q9 -23 9 -91v-187q0 -46 1 -54q5 -36 29 -36q28 0 46 20q10 11 15 11t5 -6zM253 151v73q-75 -17 -107.5 -44.5t-32.5 -73.5q0 -32 18.5 -52.5t46.5 -20.5q43 0 69 48q6 11 6 70zM371 548q0 -19 -13.5 -32t-33.5 -13q-21 0 -35 13.5t-14 33.5
t14.5 34.5t35.5 14.5q20 0 33 -14.5t13 -36.5zM199 549q0 -19 -14.5 -33t-34.5 -14t-34 14t-14 34q0 21 14 35t35 14q19 0 33.5 -15t14.5 -35zM355 645h-237v49h237v-49z" />
    <glyph glyph-name="Adotmacron" unicode="&#x1e0;" horiz-adv-x="602" 
d="M647 7q0 -9 -15 -9q-10 0 -18 1l-127 2l-127 -2q-7 -1 -15 -1q-20 0 -20 10q0 11 27 11q88 1 88 18q0 1 -2 8l-8 27l-5 14q-9 31 -44 137h-214q-60 -160 -60 -184q0 -14 12 -17q3 -1 50 -4q29 -1 29 -10q0 -10 -26 -10q-46 0 -107 4q-15 1 -31 1t-31 -2q-8 -1 -13 -1
q-14 0 -14 9t31.5 10t45.5 9.5t22 32.5q129 368 210 591q2 12 8 27l5 18q3 11 8 11q3 0 5 -6q13 -39 59 -163q36 -97 179 -487q8 -22 20.5 -28t51.5 -7q26 -1 26 -10zM375 246q-16 45 -53 149l-48 137q-42 -110 -101 -286h202zM362 806q0 -20 -14 -34t-35 -14
q-22 0 -37 14.5t-15 35.5t15.5 36t37.5 15q20 0 34 -15.5t14 -37.5zM430 909h-237v49h237v-49z" />
    <glyph glyph-name="adotmacron" unicode="&#x1e1;" horiz-adv-x="397" 
d="M429 45q0 -17 -35.5 -35.5t-68.5 -18.5q-69 0 -72 71q-38 -74 -118 -74q-43 0 -71 25.5t-28 65.5q0 82 99 130q34 16 118 32v25q0 88 -9 116q-16 51 -72 51q-35 0 -58.5 -19t-23.5 -48q0 -8 12.5 -8t22.5 -12t10 -27q0 -44 -44 -44q-23 0 -38 15.5t-15 39.5q0 47 37 81
q41 37 114 37q110 0 135 -60q9 -23 9 -91v-187q0 -46 1 -54q5 -36 29 -36q28 0 46 20q10 11 15 11t5 -6zM253 151v73q-75 -17 -107.5 -44.5t-32.5 -73.5q0 -32 18.5 -52.5t46.5 -20.5q43 0 69 48q6 11 6 70zM287 550q0 -20 -14 -34t-35 -14q-22 0 -37 14.5t-15 35.5t15.5 36
t37.5 15q20 0 34 -15.5t14 -37.5zM355 649h-237v49h237v-49z" />
    <glyph glyph-name="AEmacron" unicode="&#x1e2;" horiz-adv-x="934" 
d="M913 157q0 -5 -1 -24q-2 -37 -2 -98v-41q-119 5 -381 5q-29 0 -75 -1h-50h-7q-20 0 -20 10t27 10q38 0 46 9t8 52v144h-246q-103 -162 -103 -187q0 -10 9.5 -12.5t62.5 -6.5q19 -1 19 -9q0 -9 -17 -9h-10h-55q-40 1 -88 1q-39 0 -50 3q-7 2 -7 7q0 8 26 10q60 4 80 36
q4 4 33 53l271 460q39 65 75 128h18l32 -1q32 -1 64 -1q23 0 78 1q50 1 78 1l104 -1q17 0 49 3q0 -4 10 -125l3 -37q1 -5 1 -12q0 -11 -9 -11q-7 0 -9 11q-14 89 -51.5 120t-182.5 31q-59 0 -85 -1v-297h43q112 0 134 30q14 19 17 69q3 38 12 38q11 0 11 -17q0 -6 -2 -35
q-3 -44 -3 -71q0 -98 4 -148q1 -13 1 -17q0 -13 -10 -13q-7 0 -9 4.5t-5 28.5q-8 61 -18 78t-45 28q-15 5 -130 6v-339q163 0 212 6q67 9 90 38q18 24 27 95q3 24 16 24q10 0 10 -26zM458 246v397q-25 -45 -70 -120q-34 -57 -89 -154q-29 -51 -71 -123h230zM762 749h-237v49
h237v-49z" />
    <glyph glyph-name="aemacron" unicode="&#x1e3;" horiz-adv-x="658" 
d="M633 109q0 -10 -14.5 -34t-29.5 -40q-46 -47 -122 -47q-124 0 -181 104q-47 -104 -135 -104q-50 0 -79.5 27t-29.5 72q0 81 99 133q41 21 130 42q0 89 -10 119q-17 52 -70 52q-35 0 -59.5 -18t-24.5 -43q0 -10 16 -10q10 0 20 -12.5t10 -26.5q0 -43 -44 -43
q-23 0 -38 14.5t-15 37.5q0 44 38 80t113 36q45 0 73.5 -12.5t58.5 -44.5q48 57 122 57q131 0 168 -129q-48 -20 -167 -40q-12 -2 -67 -12q-8 -1 -44 -8q-1 -13 -1 -36q0 -115 55 -167q36 -34 89 -34q80 0 120 86q4 8 11 8q8 0 8 -7zM551 316q-22 118 -94 118
q-93 0 -105 -156q142 19 199 38zM271 245q-153 -36 -153 -138q0 -35 21 -55.5t57 -20.5q66 0 74 106q1 13 1 108zM456 502h-237v49h237v-49z" />
    <glyph glyph-name="Gcaron" unicode="&#x1e6;" horiz-adv-x="665" 
d="M687 211q0 -9 -9 -9l-23 1q-46 2 -52 -16q-4 -12 -4 -87v-32q-51 -44 -98.5 -62t-113.5 -18q-158 0 -251 94.5t-93 256.5q0 164 91 265t240 101q65 0 142 -36q23 -11 38 -11q19 0 25 24q5 14 12 14q8 0 8 -8q0 -3 -2 -21q-6 -57 -6 -82l1 -65q1 -35 1 -31q-2 -24 -13 -24
q-9 0 -10 14q-5 97 -56 152.5t-134 55.5q-104 0 -164.5 -93t-60.5 -253q0 -154 61.5 -244.5t166.5 -90.5q80 0 110 46q15 23 15 83q0 50 -9.5 59t-65.5 8q-14 0 -18 1.5t-4 6.5q0 11 22 11h18q15 -3 106 -2l84 1q7 0 15 1h11q20 0 20 -10zM484 928q0 -2 -6 -8
q-45 -44 -85 -130q-16 -35 -25 -35q-8 0 -27 36q-43 80 -94 142h65q41 -41 73 -111q20 43 48 78t42 35q9 0 9 -7z" />
    <glyph glyph-name="gcaron" unicode="&#x1e7;" horiz-adv-x="467" 
d="M492 389q0 -46 -41 -46q-14 0 -25.5 9.5t-11.5 21.5q0 4 3 12.5t3 13.5q0 13 -14 13q-12 0 -23 -12.5t-11 -25.5q0 -3 5 -34t5 -47q0 -68 -47 -114t-117 -46q-18 0 -66 15q-13 4 -17 4q-21 0 -38 -17t-17 -37q0 -52 63 -52q24 0 77 9q41 7 75 7q61 0 95.5 -32t34.5 -89
q0 -86 -73.5 -143t-185.5 -57q-83 0 -130.5 33.5t-47.5 92.5q0 57 44 86q22 14 70 25q-71 28 -71 86q0 72 92 100q-60 47 -60 124q0 72 46 115.5t121 43.5q41 0 66.5 -11t59.5 -44q32 47 79 47q57 0 57 -51zM306 290q0 145 -80 145q-78 0 -78 -135q0 -152 83 -152
q75 0 75 142zM383 -93q0 83 -98 83q-28 0 -82.5 -9t-81.5 -9q-51 -27 -51 -95q0 -51 36.5 -82t96.5 -31q76 0 128 41.5t52 101.5zM363 671q0 -2 -6 -8q-45 -44 -85 -130q-16 -35 -25 -35q-8 0 -27 36q-43 80 -94 142h65q41 -41 73 -111q20 43 48 78t42 35q9 0 9 -7z" />
    <glyph glyph-name="Kcaron" unicode="&#x1e8;" horiz-adv-x="666" 
d="M694 8q0 -9 -14 -9h-8l-120 1l-117 -1q-6 -1 -13 -1q-19 0 -19 8t25 10q52 5 52 17q0 13 -273 325v-289q0 -35 11 -43.5t59 -8.5q11 0 11 -10q0 -9 -14 -9q-10 0 -18 1l-139 2q-13 0 -30.5 -1.5t-35.5 -1.5h-9q-15 0 -15 9q0 10 37 11q34 1 40 15q3 5 3 63l-1 557
q-1 21 -54 21q-24 0 -24 11q0 9 17 9q5 0 13 -1q16 -2 89 -2q78 0 99 2q11 1 23 1q18 0 18 -11q0 -6 -5.5 -7.5t-34.5 -2.5t-34.5 -8t-5.5 -45v-244l85 85q193 193 193 201q0 13 -47 12q-30 -1 -30 10q0 7 14 8t97 1h55q35 0 40 -1q10 -2 10 -10q0 -11 -22 -11q-46 1 -59 -2
t-26 -16q-65 -68 -198 -204l-26 -26l-13 -14q6 -7 50 -54q84 -87 241 -279q33 -40 45.5 -48t48.5 -10q29 -2 29 -10zM479 917q0 -2 -6 -8q-45 -44 -85 -130q-16 -35 -25 -35q-8 0 -27 36q-43 80 -94 142h65q41 -41 73 -111q20 43 48 78t42 35q9 0 9 -7z" />
    <glyph glyph-name="kcaron" unicode="&#x1e9;" horiz-adv-x="469" 
d="M509 7q0 -7 -37 -7q-29 0 -54 1q-51 2 -70 2q-13 0 -39.5 -2t-39.5 -2q-9 0 -9 7q0 8 19 8q48 0 48 16q0 14 -168 202l1 -204q1 -15 28 -14l27 1q13 0 13 -8q0 -9 -22 -9q2 0 -5 1h-24q-24 1 -65 1h-78q-24 0 -24 8q0 5 4.5 6t34.5 2q24 1 25 11q2 7 2 52v489q0 79 -1 82
q-2 7 -29 7h-10q-7 -1 -16 -1q-11 0 -11 8t23 8q48 1 100 29q12 7 16 7q11 0 11 -83v-369q162 145 162 160q0 6 -39 6h-6q-6 -1 -15 -1h-10q-18 0 -18 8q0 9 31 9h41l37 -1h62q36 0 42 -1t6 -7q0 -7 -47 -8q-34 -1 -41 -5q-12 -7 -23 -18l-125 -121q139 -152 197 -223
q24 -29 38 -35q11 -5 49 -4q9 0 9 -8zM378 931q0 -2 -6 -8q-45 -44 -85 -130q-16 -35 -25 -35q-8 0 -27 36q-43 80 -94 142h65q41 -41 73 -111q20 43 48 78t42 35q9 0 9 -7z" />
    <glyph glyph-name="Oogonek" unicode="&#x1ea;" horiz-adv-x="720" 
d="M678 343q0 -149 -89.5 -252t-219.5 -103q-138 0 -232 104.5t-94 257.5q0 156 90.5 255.5t231.5 99.5q133 0 223 -104t90 -258zM566 338q0 183 -75 285q-47 64 -131 64q-80 0 -124 -49q-81 -90 -81 -293q0 -161 56.5 -250t158.5 -89q95 0 143 84q53 93 53 248zM448 -160
q0 -6 -20 -20q-31 -21 -64 -21q-38 0 -64.5 23.5t-26.5 57.5q0 61 100 112h14q-51 -50 -51 -96q0 -31 16 -51t41 -20q20 0 36 13q8 7 13 7q6 0 6 -5z" />
    <glyph glyph-name="oogonek" unicode="&#x1eb;" horiz-adv-x="480" 
d="M450 216q0 -97 -59 -162.5t-147 -65.5q-91 0 -152 65.5t-61 162.5q0 100 59.5 166t148.5 66q90 0 150.5 -66.5t60.5 -165.5zM359 217q0 110 -34 171q-25 45 -84 45q-56 0 -87.5 -57.5t-31.5 -159.5q0 -101 33.5 -157.5t93.5 -56.5q46 0 68 35q42 66 42 180zM332 -160
q0 -6 -20 -20q-31 -21 -64 -21q-38 0 -64.5 23.5t-26.5 57.5q0 61 100 112h14q-51 -50 -51 -96q0 -31 16 -51t41 -20q20 0 36 13q8 7 13 7q6 0 6 -5z" />
    <glyph glyph-name="Oogonekmacron" unicode="&#x1ec;" horiz-adv-x="720" 
d="M678 343q0 -149 -89.5 -252t-219.5 -103q-138 0 -232 104.5t-94 257.5q0 156 90.5 255.5t231.5 99.5q133 0 223 -104t90 -258zM566 338q0 183 -75 285q-47 64 -131 64q-80 0 -124 -49q-81 -90 -81 -293q0 -161 56.5 -250t158.5 -89q95 0 143 84q53 93 53 248zM448 -160
q0 -6 -20 -20q-31 -21 -64 -21q-38 0 -64.5 23.5t-26.5 57.5q0 61 100 112h14q-51 -50 -51 -96q0 -31 16 -51t41 -20q20 0 36 13q8 7 13 7q6 0 6 -5zM479 755h-237v49h237v-49z" />
    <glyph glyph-name="oogonekmacron" unicode="&#x1ed;" horiz-adv-x="480" 
d="M450 216q0 -97 -59 -162.5t-147 -65.5q-91 0 -152 65.5t-61 162.5q0 100 59.5 166t148.5 66q90 0 150.5 -66.5t60.5 -165.5zM359 217q0 110 -34 171q-25 45 -84 45q-56 0 -87.5 -57.5t-31.5 -159.5q0 -101 33.5 -157.5t93.5 -56.5q46 0 68 35q42 66 42 180zM332 -160
q0 -6 -20 -20q-31 -21 -64 -21q-38 0 -64.5 23.5t-26.5 57.5q0 61 100 112h14q-51 -50 -51 -96q0 -31 16 -51t41 -20q20 0 36 13q8 7 13 7q6 0 6 -5zM363 502h-237v49h237v-49z" />
    <glyph glyph-name="jcaron" unicode="&#x1f0;" horiz-adv-x="237" 
d="M174 -26q0 -107 -37 -169.5t-101 -62.5q-31 0 -51.5 16t-20.5 40q0 47 51 47q42 0 42 -35q0 -9 -6 -32q-1 -2 -1 -8q0 -9 6 -9q19 0 27.5 30.5t8.5 153.5l-1 441q-1 13 -15 13h-11q-4 -1 -46 -1q-11 0 -11 8q0 7 26 7q71 -1 104 24q18 11 23 11q8 0 9 -11.5t2 -75.5
l1 -119q0 -16 1 -43v-31v-194zM242 671q0 -2 -6 -8q-45 -44 -85 -130q-16 -35 -25 -35q-8 0 -27 36q-43 80 -94 142h65q41 -41 73 -111q20 43 48 78t42 35q9 0 9 -7z" />
    <glyph glyph-name="DZ" unicode="&#x1f1;" horiz-adv-x="1278" 
d="M674 346q0 -176 -123 -274q-90 -72 -241 -72q-4 0 -35.5 1t-91.5 1h-50l-79 -1q-7 -1 -15 -1q-19 0 -19 10q0 9 32 9q41 0 51 15q4 7 4 38v539q0 49 -7.5 57t-51.5 8q-23 0 -23 11q0 8 17 8q-1 0 22 -1t45 -1h107q180 0 255 -25q91 -30 147 -118.5t56 -203.5zM562 350
q0 166 -65 243.5t-203 77.5q-67 0 -81 -14q-6 -7 -6 -48v-532q0 -28 1.5 -34t8.5 -10q24 -12 101 -12q108 0 174 76q70 80 70 253zM1248 215q0 -7 -1 -11l-5 -33q-7 -44 -18 -129q-2 -14 -5 -44q7 0 -45.5 1t-112.5 1h-74q-142 0 -203 -6q-5 -1 -15 -1q-15 0 -15 8l2 6
q2 3 24 46q68 132 259 489q39 73 64 126q-23 5 -100 5q-122 0 -154 -50q-8 -13 -20.5 -53.5t-16.5 -69.5q-3 -21 -15 -21q-10 0 -10 10q0 8 1 12l7 48q3 23 8 50l7 41q4 23 12 59q60 -6 188 -6q43 0 92 1.5t86 1.5h16q9 0 16 1q-5 -16 -37 -82q-5 -15 -275 -524
q-12 -23 -36 -68q48 -3 117 -3q66 0 93 4q54 9 83 38q43 43 58 148q2 17 13 17q12 0 12 -12z" />
    <glyph glyph-name="Dz" unicode="&#x1f2;" horiz-adv-x="1111" 
d="M674 346q0 -176 -123 -274q-90 -72 -241 -72q-4 0 -35.5 1t-91.5 1h-50l-79 -1q-7 -1 -15 -1q-19 0 -19 10q0 9 32 9q41 0 51 15q4 7 4 38v539q0 49 -7.5 57t-51.5 8q-23 0 -23 11q0 8 17 8q-1 0 22 -1t45 -1h107q180 0 255 -25q91 -30 147 -118.5t56 -203.5zM562 350
q0 166 -65 243.5t-203 77.5q-67 0 -81 -14q-6 -7 -6 -48v-532q0 -28 1.5 -34t8.5 -10q24 -12 101 -12q108 0 174 76q70 80 70 253zM1091 143q0 -5 -4 -22q-19 -81 -23 -122l-141 1q-62 0 -100 -1q-41 -2 -56 -2h-3q-27 0 -27 8q0 1 3 6q22 39 66 116l174 293q-22 3 -63 3
q-64 0 -90 -23.5t-41 -93.5q-3 -12 -13 -12q-8 0 -8 8q0 1 7 43q12 72 20 96q70 -3 265 -3h13q1 -2 1 -5q0 -11 -52 -100q-118 -200 -190 -317q27 -1 65 -1q119 0 146 44q21 34 32 84q3 9 12 9q7 0 7 -9z" />
    <glyph glyph-name="dz" unicode="&#x1f3;" horiz-adv-x="871" 
d="M478 20q0 -7 -14 -7h-5q-8 0 -17 1h-8q-49 0 -83 -20q-14 -8 -17 -8q-9 0 -9 12l1 31q-43 -41 -102 -41q-84 0 -138.5 64.5t-54.5 164.5q0 103 54.5 167t142.5 64q68 0 102 -49v156q0 76 -7 94q-6 15 -18 14q-29 -3 -35 -3q-13 0 -13 9t11 9l36 -1q30 -1 92 28q4 2 7 2
q10 0 10 -24v-21q-1 -16 -1 -28v-345q0 -237 5 -254q2 -7 47 -7q14 0 14 -8zM330 271q0 96 -21 123q-27 34 -69 34q-54 0 -86 -56t-32 -150q0 -90 28 -154q12 -27 35.5 -44.5t48.5 -17.5q31 0 56 18.5t32.5 44.5t7.5 202zM851 143q0 -5 -4 -22q-19 -81 -23 -122l-141 1
q-62 0 -100 -1q-41 -2 -56 -2h-3q-27 0 -27 8q0 1 3 6q22 39 66 116l174 293q-22 3 -63 3q-64 0 -90 -23.5t-41 -93.5q-3 -12 -13 -12q-8 0 -8 8q0 1 7 43q12 72 20 96q70 -3 265 -3h13q1 -2 1 -5q0 -11 -52 -100q-118 -200 -190 -317q27 -1 65 -1q119 0 146 44q21 34 32 84
q3 9 12 9q7 0 7 -9z" />
    <glyph glyph-name="Gacute" unicode="&#x1f4;" horiz-adv-x="665" 
d="M687 211q0 -9 -9 -9l-23 1q-46 2 -52 -16q-4 -12 -4 -87v-32q-51 -44 -98.5 -62t-113.5 -18q-158 0 -251 94.5t-93 256.5q0 164 91 265t240 101q65 0 142 -36q23 -11 38 -11q19 0 25 24q5 14 12 14q8 0 8 -8q0 -3 -2 -21q-6 -57 -6 -82l1 -65q1 -35 1 -31q-2 -24 -13 -24
q-9 0 -10 14q-5 97 -56 152.5t-134 55.5q-104 0 -164.5 -93t-60.5 -253q0 -154 61.5 -244.5t166.5 -90.5q80 0 110 46q15 23 15 83q0 50 -9.5 59t-65.5 8q-14 0 -18 1.5t-4 6.5q0 11 22 11h18q15 -3 106 -2l84 1q7 0 15 1h11q20 0 20 -10zM449 913l-91 -95q-60 -63 -70 -63
q-6 0 -6 5q0 2 2 6q11 27 33 78l32 70h33h14q13 -1 35 -1h18z" />
    <glyph glyph-name="gacute" unicode="&#x1f5;" horiz-adv-x="467" 
d="M492 389q0 -46 -41 -46q-14 0 -25.5 9.5t-11.5 21.5q0 4 3 12.5t3 13.5q0 13 -14 13q-12 0 -23 -12.5t-11 -25.5q0 -3 5 -34t5 -47q0 -68 -47 -114t-117 -46q-18 0 -66 15q-13 4 -17 4q-21 0 -38 -17t-17 -37q0 -52 63 -52q24 0 77 9q41 7 75 7q61 0 95.5 -32t34.5 -89
q0 -86 -73.5 -143t-185.5 -57q-83 0 -130.5 33.5t-47.5 92.5q0 57 44 86q22 14 70 25q-71 28 -71 86q0 72 92 100q-60 47 -60 124q0 72 46 115.5t121 43.5q41 0 66.5 -11t59.5 -44q32 47 79 47q57 0 57 -51zM306 290q0 145 -80 145q-78 0 -78 -135q0 -152 83 -152
q75 0 75 142zM383 -93q0 83 -98 83q-28 0 -82.5 -9t-81.5 -9q-51 -27 -51 -95q0 -51 36.5 -82t96.5 -31q76 0 128 41.5t52 101.5zM328 660l-91 -95q-60 -63 -70 -63q-6 0 -6 5q0 2 2 6q11 27 33 78l32 70h33h14q13 -1 35 -1h18z" />
    <glyph glyph-name="Ngrave" unicode="&#x1f8;" horiz-adv-x="656" 
d="M642 685q0 -10 -25 -9l-22 1h-18q-16 0 -19 -5.5t-3 -33.5v-576q0 -53 -1 -62t-6 -9q-6 0 -14 11l-128 187q-111 163 -270 407l1 -558q1 -13 15 -16.5t67 -4.5q13 0 13 -8q0 -10 -26 -10q-9 0 -57 3q-16 1 -31 1q1 0 -17.5 -2t-56.5 -2h-10q-23 0 -23 9t20 9
q59 1 68.5 7.5t9.5 42.5v493q0 83 -34 104q-16 10 -57 10q-26 0 -26 10q0 9 15 9q20 0 51 -1t33 -1q3 0 28 1q33 0 64 1l345 -513v445q0 31 -1 37.5t-8 10t-48 3.5q-36 0 -36 9q0 10 24 10h35h28q16 -1 19 -1q1 0 18 1h30h31q22 0 22 -10zM401 750q0 -5 -6 -5q-10 0 -70 63
l-91 95h17l29 1h53l41 -89q0 -1 11 -26l14 -33q2 -4 2 -6z" />
    <glyph glyph-name="ngrave" unicode="&#x1f9;" horiz-adv-x="489" 
d="M485 6q0 -8 -15 -8h-12q-18 2 -49 2q-98 0 -116 -2h-7q-13 0 -13 7q0 5 5.5 6t38.5 2q19 1 22 5.5t3 32.5v192q0 109 -8 130q-17 45 -68 45q-50 0 -84 -44q-10 -13 -10 -36l1 -312q0 -12 21 -13l30 -1q10 0 10 -7t-12 -7h-16q-22 2 -70 2q-11 0 -47.5 -1t-42.5 -1h-6
q-15 0 -15 7t18 9h25q15 0 18 7l3 15v218q0 114 -2 126t-25 12q-7 0 -24 -2h-5q-20 0 -20 7q0 9 21 9q30 1 65 11t49 23q9 8 14 8q7 0 7 -19v-48q52 67 134 67q72 0 104 -53q18 -30 18 -114v-228q0 -32 3 -35q6 -6 29 -6q3 0 11 1h7q10 0 10 -7zM333 507q0 -5 -6 -5
q-10 0 -70 63l-91 95h17l29 1h53l41 -89q0 -1 11 -26l14 -33q2 -4 2 -6z" />
    <glyph glyph-name="Aringacute" unicode="&#x1fa;" horiz-adv-x="602" 
d="M647 7q0 -9 -15 -9q-10 0 -18 1l-127 2l-127 -2q-7 -1 -15 -1q-20 0 -20 10q0 11 27 11q88 1 88 18q0 1 -2 8l-8 27l-5 14q-9 31 -44 137h-214q-60 -160 -60 -184q0 -14 12 -17q3 -1 50 -4q29 -1 29 -10q0 -10 -26 -10q-46 0 -107 4q-15 1 -31 1t-31 -2q-8 -1 -13 -1
q-14 0 -14 9t31.5 10t45.5 9.5t22 32.5q129 368 210 591q2 12 8 27l5 18q3 11 8 11q3 0 5 -6q13 -39 59 -163q36 -97 179 -487q8 -22 20.5 -28t51.5 -7q26 -1 26 -10zM375 246q-16 45 -53 149l-48 137q-42 -110 -101 -286h202zM399 844q0 -37 -25.5 -61.5t-64.5 -24.5
q-35 0 -60.5 25t-25.5 60q0 37 25.5 62t62.5 25t62.5 -25t25.5 -61zM365 845q0 25 -15.5 41t-39.5 16q-22 0 -37 -17t-15 -42q0 -24 15.5 -40.5t38.5 -16.5t38 16.5t15 42.5zM395 1138l-91 -95q-60 -63 -70 -63q-6 0 -6 5q0 2 2 6q11 27 33 78l32 70h33h14q13 -1 35 -1h18z
" />
    <glyph glyph-name="aringacute" unicode="&#x1fb;" horiz-adv-x="397" 
d="M429 45q0 -17 -35.5 -35.5t-68.5 -18.5q-69 0 -72 71q-38 -74 -118 -74q-43 0 -71 25.5t-28 65.5q0 82 99 130q34 16 118 32v25q0 88 -9 116q-16 51 -72 51q-35 0 -58.5 -19t-23.5 -48q0 -8 12.5 -8t22.5 -12t10 -27q0 -44 -44 -44q-23 0 -38 15.5t-15 39.5q0 47 37 81
q41 37 114 37q110 0 135 -60q9 -23 9 -91v-187q0 -46 1 -54q5 -36 29 -36q28 0 46 20q10 11 15 11t5 -6zM253 151v73q-75 -17 -107.5 -44.5t-32.5 -73.5q0 -32 18.5 -52.5t46.5 -20.5q43 0 69 48q6 11 6 70zM324 588q0 -37 -25.5 -61.5t-64.5 -24.5q-35 0 -60.5 25t-25.5 60
q0 37 25.5 62t62.5 25t62.5 -25t25.5 -61zM290 589q0 25 -15.5 41t-39.5 16q-22 0 -37 -17t-15 -42q0 -24 15.5 -40.5t38.5 -16.5t38 16.5t15 42.5zM320 878l-91 -95q-60 -63 -70 -63q-6 0 -6 5q0 2 2 6q11 27 33 78l32 70h33h14q13 -1 35 -1h18z" />
    <glyph glyph-name="AEacute" unicode="&#x1fc;" horiz-adv-x="934" 
d="M913 157q0 -5 -1 -24q-2 -37 -2 -98v-41q-119 5 -381 5q-29 0 -75 -1h-50h-7q-20 0 -20 10t27 10q38 0 46 9t8 52v144h-246q-103 -162 -103 -187q0 -10 9.5 -12.5t62.5 -6.5q19 -1 19 -9q0 -9 -17 -9h-10h-55q-40 1 -88 1q-39 0 -50 3q-7 2 -7 7q0 8 26 10q60 4 80 36
q4 4 33 53l271 460q39 65 75 128h18l32 -1q32 -1 64 -1q23 0 78 1q50 1 78 1l104 -1q17 0 49 3q0 -4 10 -125l3 -37q1 -5 1 -12q0 -11 -9 -11q-7 0 -9 11q-14 89 -51.5 120t-182.5 31q-59 0 -85 -1v-297h43q112 0 134 30q14 19 17 69q3 38 12 38q11 0 11 -17q0 -6 -2 -35
q-3 -44 -3 -71q0 -98 4 -148q1 -13 1 -17q0 -13 -10 -13q-7 0 -9 4.5t-5 28.5q-8 61 -18 78t-45 28q-15 5 -130 6v-339q163 0 212 6q67 9 90 38q18 24 27 95q3 24 16 24q10 0 10 -26zM458 246v397q-25 -45 -70 -120q-34 -57 -89 -154q-29 -51 -71 -123h230zM727 907l-91 -95
q-60 -63 -70 -63q-6 0 -6 5q0 2 2 6q11 27 33 78l32 70h33h14q13 -1 35 -1h18z" />
    <glyph glyph-name="aeacute" unicode="&#x1fd;" horiz-adv-x="658" 
d="M633 109q0 -10 -14.5 -34t-29.5 -40q-46 -47 -122 -47q-124 0 -181 104q-47 -104 -135 -104q-50 0 -79.5 27t-29.5 72q0 81 99 133q41 21 130 42q0 89 -10 119q-17 52 -70 52q-35 0 -59.5 -18t-24.5 -43q0 -10 16 -10q10 0 20 -12.5t10 -26.5q0 -43 -44 -43
q-23 0 -38 14.5t-15 37.5q0 44 38 80t113 36q45 0 73.5 -12.5t58.5 -44.5q48 57 122 57q131 0 168 -129q-48 -20 -167 -40q-12 -2 -67 -12q-8 -1 -44 -8q-1 -13 -1 -36q0 -115 55 -167q36 -34 89 -34q80 0 120 86q4 8 11 8q8 0 8 -7zM551 316q-22 118 -94 118
q-93 0 -105 -156q142 19 199 38zM271 245q-153 -36 -153 -138q0 -35 21 -55.5t57 -20.5q66 0 74 106q1 13 1 108zM421 660l-91 -95q-60 -63 -70 -63q-6 0 -6 5q0 2 2 6q11 27 33 78l32 70h33h14q13 -1 35 -1h18z" />
    </font>
</defs>
</svg>
